<?xml version="1.0" standalone="no"?>
<!DOCTYPE svg PUBLIC "-//W3C//DTD SVG 1.1//EN" "http://www.w3.org/Graphics/SVG/1.1/DTD/svg11.dtd" >
<svg>
<metadata>
Created by FontForge 20090622 at Tue Oct  1 05:57:23 2019
 By deploy user
&#194;&#169; 2006 Microsoft Corporation. All Rights Reserved.
</metadata>
<defs>
<font id="TrebuchetMS-Bold" horiz-adv-x="1200" >
  <font-face 
    font-family="Trebuchet MS"
    font-weight="700"
    font-stretch="normal"
    units-per-em="2048"
    panose-1="2 11 7 3 2 2 2 2 2 4"
    ascent="1638"
    descent="-410"
    x-height="1071"
    cap-height="1464"
    bbox="-206 -552 2314 2008"
    underline-thickness="200"
    underline-position="-161"
    unicode-range="U+0020-U+FB02"
  />
    <missing-glyph />
    <glyph glyph-name="glyph0" horiz-adv-x="1024" 
d="M128 350v768h768v-768h-768zM256 478h512v512h-512v-512z" />
    <glyph glyph-name="glyph1" horiz-adv-x="0" 
 />
    <glyph glyph-name="glyph2" horiz-adv-x="823" 
 />
    <glyph glyph-name="space" unicode=" " horiz-adv-x="617" 
 />
    <glyph glyph-name="exclam" unicode="!" horiz-adv-x="752" 
d="M426 382h-104q-78 500 -78 699v410h260v-409q0 -200 -78 -700zM382 308q68 0 115.5 -48t47.5 -116t-47.5 -116t-115.5 -48t-116 48t-48 116t48 116t116 48z" />
    <glyph glyph-name="quotedbl" unicode="&#x22;" horiz-adv-x="751" 
d="M667 1036h-189l-28 431h248zM287 1036h-189l-28 431h248z" />
    <glyph glyph-name="numbersign" unicode="#" 
d="M1174 910h-215l-84 -320h154v-181h-202l-120 -429h-195l118 429h-230l-118 -429h-195l118 429h-140v181h189l83 320h-157v181h205l108 396h193l-105 -396h229l108 396h193l-104 -396h167v-181zM769 910h-237l-84 -320h235z" />
    <glyph glyph-name="dollar" unicode="$" 
d="M473 -23q-174 12 -318 104l96 233q154 -108 303 -108q229 0 229 158q0 79 -58.5 148.5t-222 151.5t-222.5 136t-90.5 129t-31.5 167q0 136 85.5 240t229.5 139v181h229l-1 -171q184 -18 274 -90l-79 -224q-137 98 -289 98q-90 0 -139.5 -48.5t-49.5 -122.5
q0 -126 279 -262q147 -72 212 -132.5t99 -141t34 -179.5q0 -140 -90 -244.5t-250 -143.5v-230h-229v212z" />
    <glyph glyph-name="percent" unicode="%" horiz-adv-x="1401" 
d="M31 1146q0 152 89 248.5t228 96.5q137 0 218.5 -96t81.5 -268q0 -160 -86 -257t-223 -97q-308 0 -308 373zM217 1136q0 -100 32 -154t81 -54q132 0 132 207q0 200 -117 200q-128 0 -128 -199zM335 -20h-196l918 1511h195zM731 353q0 152 89 248.5t228 96.5
q137 0 218.5 -96t81.5 -267q0 -160 -86 -257.5t-223 -97.5q-308 0 -308 373zM917 344q0 -100 31.5 -154t81.5 -54q132 0 132 207q0 200 -117 200q-128 0 -128 -199z" />
    <glyph glyph-name="ampersand" unicode="&#x26;" horiz-adv-x="1446" 
d="M925 44q-150 -64 -346 -64q-224 0 -345.5 129t-121.5 355q0 212 149 362q-129 131 -129 280q0 159 124.5 272t330.5 113q216 0 356 -109l-106 -182q-125 89 -219 89q-113 0 -174.5 -54.5t-61.5 -147.5q0 -107 96 -183h332v167l250 93v-263h249v-211h-249v-289
q0 -115 31 -157.5t104 -42.5q69 0 138 31v-219q-104 -33 -224 -33q-96 0 -184 64zM810 330v360h-358q-80 -97 -80 -218q0 -271 275 -271q109 0 170 32q-7 37 -7 97z" />
    <glyph glyph-name="quotesingle" unicode="'" horiz-adv-x="470" 
d="M337 1036h-189l-28 431h248z" />
    <glyph glyph-name="parenleft" unicode="(" horiz-adv-x="752" 
d="M648 1494v-138q-198 -277 -198 -800q0 -622 198 -842v-169q-236 160 -360.5 424t-124.5 589q0 278 140 555.5t345 380.5z" />
    <glyph glyph-name="parenright" unicode=")" horiz-adv-x="752" 
d="M163 -455v169q198 220 198 842q0 523 -198 800v138q205 -103 345 -380.5t140 -555.5q0 -325 -124.5 -589t-360.5 -424z" />
    <glyph glyph-name="asterisk" unicode="*" horiz-adv-x="885" 
d="M671 1102l-134 -11l137 -78l86 -111l-193 -144l-84 122l-53 128l-49 -114l-111 -136l-172 154l118 115l110 57l-135 12l-156 62l98 205l158 -67l71 -76l-54 155v136l236 -1v-131l-46 -162l100 89l142 62l81 -201z" />
    <glyph glyph-name="plus" unicode="+" 
d="M713 535v-355h-201v355h-348v201h348v343h201v-343h349v-201h-349z" />
    <glyph glyph-name="comma" unicode="," horiz-adv-x="752" 
d="M217 -374l-85 109q183 137 183 215q0 30 -21 59q-95 46 -95 129q0 60 50 99.5t124 39.5q69 0 120.5 -52.5t51.5 -121.5q0 -127 -59.5 -231.5t-268.5 -245.5z" />
    <glyph glyph-name="hyphen" unicode="-" horiz-adv-x="752" 
d="M109 476v235h529v-235h-529z" />
    <glyph glyph-name="hyphen" unicode="&#x2010;" horiz-adv-x="752" 
d="M109 476v235h529v-235h-529z" />
    <glyph glyph-name="period" unicode="." horiz-adv-x="752" 
d="M174 131q0 75 52.5 127.5t127.5 52.5t127.5 -52.5t52.5 -127.5t-52.5 -128t-127.5 -53t-127.5 53t-52.5 128z" />
    <glyph glyph-name="slash" unicode="/" horiz-adv-x="799" 
d="M241 0h-225l553 1471h223z" />
    <glyph glyph-name="zero" unicode="0" 
d="M75 777q0 300 146.5 507t391.5 207q511 0 511 -746q0 -349 -138 -557t-387 -208q-268 0 -396 192t-128 605zM345 759q0 -293 57 -431t189 -138q143 0 203 124.5t60 443.5q0 297 -57.5 410t-188.5 113q-263 0 -263 -522z" />
    <glyph glyph-name="one" unicode="1" 
d="M569 0v1056l-298 -179v250q287 139 454 344h104v-1471h-260z" />
    <glyph glyph-name="two" unicode="2" 
d="M155 0v76l464 683q139 205 139 345q0 166 -199 166q-152 0 -245 -161l-175 138q52 105 163.5 174.5t246.5 69.5q225 0 352 -102.5t127 -284.5q0 -167 -163 -416l-300 -457h550v-231h-960z" />
    <glyph glyph-name="three" unicode="3" 
d="M143 123l130 201q116 -123 252 -123q248 0 248 233q0 106 -72 172.5t-194 66.5h-46v214h39q224 0 224 187q0 196 -209 196q-108 0 -210 -102l-122 179q47 58 147 101t200 43q219 0 341.5 -100t122.5 -280q0 -214 -184 -326q233 -112 233 -366q0 -209 -138.5 -324
t-382.5 -115q-222 0 -379 143z" />
    <glyph glyph-name="four" unicode="4" 
d="M984 383v-383h-250v383h-667v149l803 939h114v-882h148v-206h-148zM734 1029l-376 -440h376v440z" />
    <glyph glyph-name="five" unicode="5" 
d="M165 111l103 214q159 -124 273 -124q252 0 252 310q0 149 -57 217.5t-191 68.5q-121 0 -236 -119l-103 67v726h789v-221h-539v-262q66 30 158 30q216 0 332.5 -125t116.5 -354q0 -559 -521 -559q-216 0 -377 131z" />
    <glyph glyph-name="six" unicode="6" 
d="M760 1494l138 -146q-149 -78 -271 -205t-168 -251q104 47 180 47q207 0 332.5 -128.5t125.5 -347.5q0 -216 -128.5 -349.5t-324.5 -133.5q-512 0 -512 639q0 268 197.5 542.5t430.5 332.5zM402 468q0 -267 227 -267q93 0 148 66.5t55 185.5q0 122 -57.5 193.5
t-148.5 71.5q-224 0 -224 -250z" />
    <glyph glyph-name="seven" unicode="7" 
d="M537 0h-285q163 502 560 1231h-671v240h1010v-111l-132 -249l-137 -275.5l-140 -304t-120 -289t-85 -242.5z" />
    <glyph glyph-name="eight" unicode="8" 
d="M352 802q-80 54 -131 143t-51 178q0 169 119.5 268.5t306.5 99.5q201 0 314 -99.5t113 -269.5q0 -89 -63 -188.5t-138 -139.5q95 -44 175.5 -159t80.5 -216q0 -208 -131 -323.5t-356 -115.5q-227 0 -350.5 113t-123.5 326q0 110 65.5 216t169.5 167zM620 902
q56 26 99 96.5t43 127.5q0 66 -45.5 105t-120.5 39q-166 0 -166 -145q0 -64 61 -130.5t129 -92.5zM568 697q-191 -108 -191 -278q0 -94 59.5 -156t154.5 -62q100 0 163.5 54.5t63.5 143.5q0 152 -250 298z" />
    <glyph glyph-name="nine" unicode="9" 
d="M453 -28l-138 146q304 168 430 439q-67 -30 -171 -30q-206 0 -332 128t-126 348q0 218 129 353t324 135q512 0 512 -644q0 -268 -197.5 -542.5t-430.5 -332.5zM381 1013q0 -123 58 -194t148 -71q224 0 224 250q0 272 -227 272q-93 0 -148 -68.5t-55 -188.5z" />
    <glyph glyph-name="colon" unicode=":" horiz-adv-x="752" 
d="M174 941q0 75 52.5 127.5t127.5 52.5t127.5 -52.5t52.5 -127.5t-52.5 -128t-127.5 -53t-127.5 53t-52.5 128zM174 131q0 75 52.5 127.5t127.5 52.5t127.5 -52.5t52.5 -127.5t-52.5 -128t-127.5 -53t-127.5 53t-52.5 128z" />
    <glyph glyph-name="semicolon" unicode=";" horiz-adv-x="752" 
d="M174 941q0 75 52.5 127.5t127.5 52.5t127.5 -52.5t52.5 -127.5t-52.5 -128t-127.5 -53t-127.5 53t-52.5 128zM217 -374l-85 109q183 137 183 215q0 30 -21 59q-95 46 -95 129q0 60 50 99.5t124 39.5q69 0 120.5 -52.5t51.5 -121.5q0 -127 -59.5 -231.5t-268.5 -245.5z
" />
    <glyph glyph-name="less" unicode="&#x3c;" 
d="M192 557v161l799 383v-228l-528 -236l528 -239v-228z" />
    <glyph glyph-name="equal" unicode="=" 
d="M179 745v201h898v-201h-898zM179 325v201h898v-201h-898z" />
    <glyph glyph-name="greater" unicode="&#x3e;" 
d="M265 170v228l527 239l-527 236v228l799 -383v-161z" />
    <glyph glyph-name="question" unicode="?" horiz-adv-x="897" 
d="M497 444h-191q-2 7 -18.5 51t-16.5 77q0 63 17.5 121t51.5 108.5t134.5 161.5t100.5 183q0 140 -183 140q-89 0 -186 -89l-103 193q129 101 339 101q162 0 270.5 -90t108.5 -239q0 -102 -39.5 -172.5t-139 -165.5t-129.5 -158t-30 -138q0 -16 14 -84zM412 308
q68 0 115.5 -48t47.5 -116t-47.5 -116t-115.5 -48t-116 48t-48 116t48 116t116 48z" />
    <glyph glyph-name="at" unicode="@" horiz-adv-x="1578" 
d="M922 297q-86 -66 -201 -66q-117 0 -193 63.5t-76 172.5q0 252 396 266q-19 94 -84 94q-94 0 -193 -57l-59 136q110 79 238 79q308 0 308 -335v-215q57 -37 92 -37q156 0 156 263q0 228 -132.5 358.5t-368.5 130.5q-240 0 -386.5 -159.5t-146.5 -408.5q0 -245 144.5 -393
t388.5 -148q129 0 208 29.5t158 99.5q1 -1 1 -27q0 -27 -1 -78v-101q-172 -98 -366 -98q-333 0 -534 198t-201 518q0 325 203.5 534t531.5 209q337 0 520 -174t183 -493q0 -174 -97 -296.5t-259 -122.5q-148 0 -230 58zM852 597h-21q-165 0 -165 -125q0 -39 29 -64.5
t74 -25.5q48 0 83 31v184z" />
    <glyph glyph-name="A" unicode="A" horiz-adv-x="1297" 
d="M1005 0l-107 297h-502l-102 -297h-289l584 1485h114l589 -1485h-287zM646 1037l-176 -541h352z" />
    <glyph glyph-name="B" unicode="B" horiz-adv-x="1219" 
d="M598 0h-448v1464q296 14 415 14q228 0 356.5 -97.5t128.5 -278.5q0 -174 -184 -275q273 -95 273 -392q0 -200 -151 -317.5t-390 -117.5zM410 1256v-351q60 -4 126 -4q254 0 254 191q0 169 -231 169q-61 0 -149 -5zM410 702v-484q79 -7 128 -7q174 0 252.5 59t78.5 196
q0 125 -73 182t-255 57q-38 0 -131 -3z" />
    <glyph glyph-name="C" unicode="C" horiz-adv-x="1253" 
d="M1154 1387l-107 -215q-87 87 -280 87q-183 0 -300 -153.5t-117 -388.5t108.5 -373t289.5 -138q207 0 324 148l121 -210q-159 -169 -466 -169t-477 202t-170 551q0 325 188.5 543.5t482.5 218.5q252 0 403 -103z" />
    <glyph glyph-name="D" unicode="D" horiz-adv-x="1316" 
d="M475 0h-325v1464q311 11 391 11q320 0 507.5 -187.5t187.5 -497.5q0 -790 -761 -790zM410 1237v-1000q63 -6 136 -6q197 0 308.5 143t111.5 400q0 470 -437 470q-42 0 -119 -7z" />
    <glyph glyph-name="E" unicode="E" horiz-adv-x="1165" 
d="M410 1234v-343h484v-221h-484v-439h664v-231h-924v1465h935v-231h-675z" />
    <glyph glyph-name="F" unicode="F" horiz-adv-x="1195" 
d="M410 1234v-343h515v-221h-515v-670h-260v1465h965v-231h-705z" />
    <glyph glyph-name="G" unicode="G" horiz-adv-x="1375" 
d="M1232 1346l-109 -209q-46 41 -142 81.5t-165 40.5q-216 0 -341 -146.5t-125 -392.5q0 -234 122.5 -374t333.5 -140q139 0 229 76v288h-203v222h463v-656q-93 -76 -239.5 -118.5t-291.5 -42.5q-315 0 -499.5 206.5t-184.5 545.5t201 551t541 212q241 0 410 -144z" />
    <glyph glyph-name="H" unicode="H" horiz-adv-x="1400" 
d="M993 0v660h-583v-660h-260v1465h260v-574h583v574h257v-1465h-257z" />
    <glyph glyph-name="I" unicode="I" horiz-adv-x="570" 
d="M155 0v1465h260v-1465h-260z" />
    <glyph glyph-name="J" unicode="J" horiz-adv-x="1091" 
d="M17 339h232q33 -128 214 -128q128 0 180.5 83t52.5 252v919h260v-911q0 -292 -124 -433t-398 -141q-182 0 -294 95t-123 264z" />
    <glyph glyph-name="K" unicode="K" horiz-adv-x="1264" 
d="M981 0l-408 624l-163 -223v-401h-260v1465h260v-701l498 701h296l-459 -640l547 -825h-311z" />
    <glyph glyph-name="L" unicode="L" horiz-adv-x="1132" 
d="M150 0v1465h260v-1234h662v-231h-922z" />
    <glyph glyph-name="M" unicode="M" horiz-adv-x="1526" 
d="M1516 -1h-252l-152 790l-295 -809h-93l-295 809l-158 -790h-251l295 1466h138l317 -987l310 987h137z" />
    <glyph glyph-name="N" unicode="N" horiz-adv-x="1367" 
d="M1111 -20l-711 927v-908h-250v1466h125l692 -884v884h250v-1485h-106z" />
    <glyph glyph-name="O" unicode="O" horiz-adv-x="1440" 
d="M80 745q0 313 171.5 529.5t458.5 216.5q316 0 483 -196t167 -550t-174.5 -562t-495.5 -208q-295 0 -452.5 206t-157.5 564zM350 745q0 -257 87 -398t253 -141q195 0 297.5 138t102.5 401q0 515 -380 515q-174 0 -267 -139.5t-93 -375.5z" />
    <glyph glyph-name="P" unicode="P" horiz-adv-x="1202" 
d="M410 539v-539h-260v1464q260 11 304 11q347 0 507.5 -106.5t160.5 -332.5q0 -504 -594 -504q-44 0 -118 7zM410 1239v-469q66 -7 104 -7q178 0 260 59.5t82 193.5q0 228 -367 228q-41 0 -79 -5z" />
    <glyph glyph-name="Q" unicode="Q" horiz-adv-x="1452" 
d="M1539 -303q-66 -9 -134 -9q-186 0 -342.5 75.5t-243.5 211.5q-37 -7 -119 -7q-289 0 -454.5 216t-165.5 556q0 322 169 536.5t451 214.5q317 0 488.5 -198.5t171.5 -552.5q0 -525 -344 -701q109 -120 362 -120q93 0 161 20v-242zM350 740q0 -230 92 -385t258 -155
q192 0 291 142t99 398q0 519 -390 519q-172 0 -261 -139t-89 -380z" />
    <glyph glyph-name="R" unicode="R" horiz-adv-x="1251" 
d="M976 0l-391 605q-59 1 -165 7v-612h-270v1465q22 0 169 7.5t237 7.5q558 0 558 -432q0 -130 -77 -237t-194 -151l433 -660h-300zM420 1239v-407q72 -6 110 -6q163 0 238.5 46t75.5 179q0 108 -81 151t-255 43q-42 0 -88 -6z" />
    <glyph glyph-name="S" unicode="S" horiz-adv-x="1047" 
d="M80 81l96 233q154 -108 303 -108q229 0 229 160q0 75 -54 143t-222.5 152.5t-227 139t-90 129.5t-31.5 166q0 170 124.5 282t319.5 112q254 0 373 -95l-79 -224q-137 98 -289 98q-90 0 -139.5 -47.5t-49.5 -123.5q0 -126 279 -262q147 -72 212 -132.5t99 -141t34 -179.5
q0 -178 -140.5 -293t-376.5 -115q-205 0 -370 106z" />
    <glyph glyph-name="T" unicode="T" horiz-adv-x="1253" 
d="M746 1234v-1234h-260v1234h-466v231h1213v-231h-487z" />
    <glyph glyph-name="U" unicode="U" horiz-adv-x="1388" 
d="M150 1465h260v-993q0 -118 72 -192t198 -74q141 0 219.5 72.5t78.5 198.5v988h260v-1008q0 -226 -151.5 -354t-404.5 -128q-255 0 -393.5 125t-138.5 358v1007z" />
    <glyph glyph-name="V" unicode="V" horiz-adv-x="1273" 
d="M696 -20h-143l-548 1485h286l339 -990l358 990h280z" />
    <glyph glyph-name="W" unicode="W" horiz-adv-x="1810" 
d="M1331 -20h-107l-320 924l-311 -924h-107l-481 1485h271l275 -884l297 884h114l298 -884l274 884h271z" />
    <glyph glyph-name="X" unicode="X" horiz-adv-x="1230" 
d="M942 0l-346 527l-320 -527h-271l439 759l-404 707l266 -1l297 -495l327 495h272l-464 -710l487 -755h-283z" />
    <glyph glyph-name="Y" unicode="Y" horiz-adv-x="1256" 
d="M759 601v-601h-260v601l-494 864h276l347 -625l348 625h275z" />
    <glyph glyph-name="Z" unicode="Z" horiz-adv-x="1147" 
d="M80 0v84l611 1150h-601v231h955v-84l-613 -1150h635v-231h-987z" />
    <glyph glyph-name="bracketleft" unicode="[" horiz-adv-x="823" 
d="M150 -420v1930h523v-223h-263v-1484h263v-223h-523z" />
    <glyph glyph-name="backslash" unicode="\" horiz-adv-x="728" 
d="M528 0l-536 1471h206l537 -1471h-207z" />
    <glyph glyph-name="bracketright" unicode="]" horiz-adv-x="823" 
d="M673 -420h-523v223h263v1484h-263v223h523v-1930z" />
    <glyph glyph-name="asciicircum" unicode="^" 
d="M812 907l-214 358l-218 -362h-192l358 568h107l356 -564h-197z" />
    <glyph glyph-name="underscore" unicode="_" 
d="M-8 -334v209h1215v-209h-1215z" />
    <glyph glyph-name="grave" unicode="`" 
d="M596 1215l-226 293h267l169 -293h-210z" />
    <glyph glyph-name="a" unicode="a" horiz-adv-x="1091" 
d="M731 107q-34 -56 -118.5 -91.5t-176.5 -35.5q-173 0 -272 86.5t-99 245.5q0 186 139.5 291t396.5 105q44 0 104 -15q0 189 -239 189q-141 0 -236 -47l-54 194q129 62 307 62q245 0 359 -111.5t114 -422.5v-229q0 -214 86 -269q-31 -54 -69 -66.5t-87 -12.5q-54 0 -97 40
t-58 87zM707 504q-64 13 -96 13q-296 0 -296 -194q0 -144 167 -144q225 0 225 225v100z" />
    <glyph glyph-name="b" unicode="b" horiz-adv-x="1191" 
d="M312 59l-56 -79h-141v1490l250 60v-500q100 61 218 61q235 0 379 -148.5t144 -380.5q0 -269 -145 -425.5t-393 -156.5q-149 0 -256 79zM365 816v-559q55 -65 149 -65q181 0 256.5 86t75.5 275q0 326 -312 326q-111 0 -169 -63z" />
    <glyph glyph-name="c" unicode="c" horiz-adv-x="1048" 
d="M975 986l-107 -187q-88 83 -236 83q-142 0 -224.5 -94.5t-82.5 -261.5q0 -337 321 -337q139 0 245 92l92 -197q-109 -68 -190.5 -86t-192.5 -18q-248 0 -391.5 144.5t-143.5 401.5q0 253 157 409t428 156q187 0 325 -105z" />
    <glyph glyph-name="d" unicode="d" horiz-adv-x="1189" 
d="M824 0v65q-31 -34 -105 -59.5t-153 -25.5q-224 0 -352.5 142t-128.5 396t147.5 413.5t369.5 159.5q122 0 222 -50v429l250 60v-1530h-250zM824 815q-80 64 -167 64q-150 0 -231 -91.5t-81 -262.5q0 -334 322 -334q36 0 88.5 21.5t68.5 43.5v559z" />
    <glyph glyph-name="e" unicode="e" horiz-adv-x="1177" 
d="M1091 459h-765q7 -128 88 -199t218 -71q171 0 260 89l97 -191q-132 -107 -394 -107q-245 0 -387.5 143.5t-142.5 400.5q0 253 156.5 410t375.5 157q233 0 374 -139t141 -354q0 -46 -21 -139zM335 647h526q-26 235 -260 235q-214 0 -266 -235z" />
    <glyph glyph-name="f" unicode="f" horiz-adv-x="757" 
d="M732 1281q-82 27 -126 27q-71 0 -120.5 -61t-49.5 -150q0 -13 1 -26h222v-206h-218v-865h-250v865h-156v206h157q8 197 116.5 318t280.5 121q89 0 217 -39z" />
    <glyph glyph-name="g" unicode="g" horiz-adv-x="1028" 
d="M55 -275l158 195q131 -120 292 -120q108 0 178 32t70 88q0 95 -155 95q-42 0 -125 -10t-125 -10q-258 0 -258 185q0 53 43 104t100 75q-183 119 -183 337q0 172 126 284.5t310 112.5q144 0 241 -54l98 114l173 -157l-119 -87q62 -94 62 -222q0 -183 -111.5 -292.5
t-281.5 -109.5q-27 0 -72 5l-41 6q-7 0 -53.5 -21.5t-46.5 -44.5q0 -40 69 -40q31 0 104 15t125 15q365 0 365 -293q0 -162 -146 -254.5t-352 -92.5q-246 0 -445 145zM305 695q0 -95 52.5 -152.5t141.5 -57.5t137 56t48 154q0 81 -51.5 137t-133.5 56q-86 0 -140 -54
t-54 -139z" />
    <glyph glyph-name="h" unicode="h" horiz-adv-x="1214" 
d="M828 0v660q0 99 -62 159t-162 60q-62 0 -125 -33.5t-90 -76.5v-769h-254v1470l254 60v-527q97 88 267 88q201 0 312 -111.5t111 -319.5v-660h-251z" />
    <glyph glyph-name="i" unicode="i" horiz-adv-x="611" 
d="M331 1486q60 0 102.5 -42.5t42.5 -102.5t-42.5 -102.5t-102.5 -42.5t-102.5 42.5t-42.5 102.5t42.5 102.5t102.5 42.5zM202 0v866h-137v205h390v-1071h-253z" />
    <glyph glyph-name="j" unicode="j" horiz-adv-x="751" 
d="M446 1486q60 0 102.5 -42.5t42.5 -102.5t-42.5 -102.5t-102.5 -42.5t-102.5 42.5t-42.5 102.5t42.5 102.5t102.5 42.5zM-12 -420v223q200 0 270.5 47.5t70.5 170.5v844h-193v206h443v-1046q0 -230 -144.5 -337.5t-446.5 -107.5z" />
    <glyph glyph-name="k" unicode="k" horiz-adv-x="1122" 
d="M820 0l-315 485l-120 -127v-358h-250v1470l250 60v-870l357 411h301l-362 -406l436 -665h-297z" />
    <glyph glyph-name="l" unicode="l" horiz-adv-x="604" 
d="M178 1470l250 60v-1204q0 -198 118 -236q-58 -110 -198 -110q-170 0 -170 236v1254z" />
    <glyph glyph-name="m" unicode="m" horiz-adv-x="1760" 
d="M1375 0v671q0 211 -189 211q-56 0 -108 -33t-73 -76v-773h-250v710q0 79 -49 125.5t-138 46.5q-47 0 -102.5 -35t-80.5 -77v-770h-250v1071h172l51 -94q104 114 269 114q213 0 321 -116q47 53 131 84.5t168 31.5q179 0 278.5 -102.5t99.5 -281.5v-707h-250z" />
    <glyph glyph-name="n" unicode="n" horiz-adv-x="1209" 
d="M824 0v619q0 137 -52.5 200t-171.5 63q-55 0 -117.5 -31t-97.5 -77v-774h-250v1071h180l46 -100q102 120 301 120q191 0 301.5 -114.5t110.5 -319.5v-657h-250z" />
    <glyph glyph-name="o" unicode="o" horiz-adv-x="1159" 
d="M65 538q0 245 141.5 399t373.5 154q244 0 379 -148t135 -405q0 -256 -137.5 -407t-376.5 -151q-244 0 -379.5 152.5t-135.5 405.5zM325 538q0 -354 255 -354q117 0 185.5 92t68.5 262q0 349 -254 349q-117 0 -186 -92t-69 -257z" />
    <glyph glyph-name="p" unicode="p" horiz-adv-x="1193" 
d="M365 27v-447h-250v1491h250v-72q94 92 231 92q512 0 512 -564q0 -263 -141.5 -405t-386.5 -142q-118 0 -215 47zM365 809v-563q68 -55 159 -55q173 0 248.5 82.5t75.5 260.5q0 190 -75 267.5t-248 77.5q-90 0 -160 -70z" />
    <glyph glyph-name="q" unicode="q" horiz-adv-x="1196" 
d="M831 -420v450q-90 -50 -248 -50q-234 0 -366 142.5t-132 402.5q0 259 151.5 412.5t387.5 153.5q140 0 254 -84l41 64h162v-1491h-250zM831 817q-67 62 -175 62q-146 0 -228.5 -96.5t-82.5 -257.5q0 -334 303 -334q111 0 183 52v574z" />
    <glyph glyph-name="r" unicode="r" horiz-adv-x="875" 
d="M754 838q-67 44 -147 44q-87 0 -154.5 -79t-67.5 -193v-610h-250v1071h250v-98q105 118 279 118q128 0 196 -39z" />
    <glyph glyph-name="s" unicode="s" horiz-adv-x="882" 
d="M69 69l89 199q112 -89 253 -89q146 0 146 104q0 61 -44 100t-171 92q-277 115 -277 322q0 139 106 216.5t271 77.5q167 0 314 -75l-72 -194q-82 70 -228 70q-131 0 -131 -104q0 -41 43 -74t184 -88.5t203 -134.5t62 -191q0 -149 -110.5 -234.5t-300.5 -85.5
q-107 0 -171.5 17.5t-165.5 71.5z" />
    <glyph glyph-name="t" unicode="t" horiz-adv-x="812" 
d="M173 870h-124v201h124v218l250 92v-310h294v-201h-294v-469q0 -115 36 -162.5t126 -47.5t168 49v-230q-87 -30 -248 -30q-160 0 -246 90.5t-86 257.5v542z" />
    <glyph glyph-name="u" unicode="u" horiz-adv-x="1210" 
d="M825 -1v90q-53 -45 -146 -77t-171 -32q-373 0 -373 396v695h250v-676q0 -206 185 -206q85 0 158 44t97 102v736h250v-1072h-250z" />
    <glyph glyph-name="v" unicode="v" horiz-adv-x="1080" 
d="M579 -20h-90l-484 1091h274l256 -654l275 654h265z" />
    <glyph glyph-name="w" unicode="w" horiz-adv-x="1605" 
d="M1187 -20h-91l-294 658l-293 -658h-92l-404 1091h263l215 -639l262 639h90l271 -643l232 643h246z" />
    <glyph glyph-name="x" unicode="x" horiz-adv-x="1131" 
d="M823 0l-275 349l-247 -349h-296l411 548l-378 523h287l226 -327l252 327h285l-411 -523l449 -548h-303z" />
    <glyph glyph-name="y" unicode="y" horiz-adv-x="1093" 
d="M609 -172q-40 -107 -171.5 -177.5t-306.5 -70.5v221q289 0 289 145q0 96 -80 294l-335 831h259l292 -740l263 740h259z" />
    <glyph glyph-name="z" unicode="z" horiz-adv-x="1082" 
d="M65 0v85l581 768h-571v218h936v-88l-560 -765h566v-218h-952z" />
    <glyph glyph-name="braceleft" unicode="{" horiz-adv-x="888" 
d="M641 -420q-180 0 -302.5 86t-122.5 232q0 72 37 212t37 212q0 165 -209 178v136q209 15 209 195q0 64 -37 186.5t-37 186.5q0 139 123 222.5t293 83.5h178v-187h-205q-134 0 -134 -149q0 -56 31.5 -162.5t31.5 -162.5q0 -154 -192 -275q192 -100 192 -246
q0 -62 -31.5 -181.5t-31.5 -180.5q0 -70 29.5 -114.5t85 -61t224.5 -16.5v-194h-169z" />
    <glyph glyph-name="bar" unicode="|" 
d="M505 -420v1930h206v-1930h-206z" />
    <glyph glyph-name="braceright" unicode="}" horiz-adv-x="888" 
d="M810 500q-209 -13 -209 -178q0 -72 37 -212t37 -212q0 -146 -122.5 -232t-302.5 -86h-169v194q169 0 224.5 16.5t85 61t29.5 114.5q0 61 -31.5 180.5t-31.5 181.5q0 146 192 246q-192 121 -192 275q0 56 31.5 162.5t31.5 162.5q0 149 -134 149h-205v187h178
q169 0 292.5 -83.5t123.5 -222.5q0 -64 -37 -186.5t-37 -186.5q0 -180 209 -195v-136z" />
    <glyph glyph-name="asciitilde" unicode="~" 
d="M326 479h-146q21 120 78.5 193.5t141.5 73.5q48 0 96 -10t197 -56q41 -11 73 -11q60 0 87 77h148q-38 -148 -92 -207.5t-139 -59.5q-47 0 -96 10t-144.5 38.5t-114.5 28.5q-52 0 -89 -77z" />
    <glyph glyph-name="Adieresis" unicode="&#xc4;" horiz-adv-x="1297" 
d="M1005 0l-107 297h-502l-102 -297h-289l584 1485h114l589 -1485h-287zM646 1037l-176 -541h352zM332 1870q59 0 100.5 -42t41.5 -101t-41.5 -100.5t-100.5 -41.5t-101 41.5t-42 100.5t42 101t101 42zM952 1870q59 0 100.5 -42t41.5 -101t-41.5 -100.5t-100.5 -41.5
t-101 41.5t-42 100.5t42 101t101 42z" />
    <glyph glyph-name="Aring" unicode="&#xc5;" horiz-adv-x="1297" 
d="M1292 0h-287l-107 297h-502l-102 -297h-289l545 1386q-154 51 -154 196q0 91 76 151t176 60q103 0 177.5 -59t74.5 -152q0 -145 -158 -196zM647 1677q-44 0 -75 -25.5t-31 -70.5q0 -96 106 -96t106 96t-106 96zM822 496l-176 541l-176 -541h352z" />
    <glyph glyph-name="Ccedilla" unicode="&#xc7;" horiz-adv-x="1253" 
d="M1154 1387l-107 -215q-87 87 -280 87q-183 0 -300 -153.5t-117 -388.5t108.5 -373t289.5 -138q207 0 324 148l121 -210q-159 -169 -466 -169t-477 202t-170 551q0 325 188.5 543.5t482.5 218.5q252 0 403 -103zM515 -425l-41 127q34 -9 70 -9q131 0 131 91q0 33 -20.5 64
t-51.5 39l85 89q180 -37 180 -207q0 -96 -71 -150.5t-184 -54.5q-51 0 -98 11z" />
    <glyph glyph-name="Eacute" unicode="&#xc9;" horiz-adv-x="1165" 
d="M410 1234v-343h484v-221h-484v-439h664v-231h-924v1465h935v-231h-675zM877 1878l-226 -293h-190l169 293h247z" />
    <glyph glyph-name="Ntilde" unicode="&#xd1;" horiz-adv-x="1367" 
d="M1111 -20l-711 927v-908h-250v1466h125l692 -884v884h250v-1485h-106zM466 1555h-145q19 114 76.5 185.5t142.5 71.5q78 0 156 -38.5t100 -38.5q61 0 87 77h148q-38 -149 -93 -203t-138 -54q-62 0 -141.5 38.5t-103.5 38.5q-52 0 -89 -77z" />
    <glyph glyph-name="Odieresis" unicode="&#xd6;" horiz-adv-x="1440" 
d="M80 745q0 313 171.5 529.5t458.5 216.5q316 0 483 -196t167 -550t-174.5 -562t-495.5 -208q-295 0 -452.5 206t-157.5 564zM350 745q0 -257 87 -398t253 -141q195 0 297.5 138t102.5 401q0 515 -380 515q-174 0 -267 -139.5t-93 -375.5zM418 1870q59 0 100.5 -42
t41.5 -101t-41.5 -100.5t-100.5 -41.5t-101 41.5t-42 100.5t42 101t101 42zM1038 1870q59 0 100.5 -42t41.5 -101t-41.5 -100.5t-100.5 -41.5t-101 41.5t-42 100.5t42 101t101 42z" />
    <glyph glyph-name="Udieresis" unicode="&#xdc;" horiz-adv-x="1388" 
d="M150 1465h260v-993q0 -118 72 -192t198 -74q141 0 219.5 72.5t78.5 198.5v988h260v-1008q0 -226 -151.5 -354t-404.5 -128q-255 0 -393.5 125t-138.5 358v1007zM378 1870q59 0 100.5 -42t41.5 -101t-41.5 -100.5t-100.5 -41.5t-101 41.5t-42 100.5t42 101t101 42z
M998 1870q59 0 100.5 -42t41.5 -101t-41.5 -100.5t-100.5 -41.5t-101 41.5t-42 100.5t42 101t101 42z" />
    <glyph glyph-name="aacute" unicode="&#xe1;" horiz-adv-x="1091" 
d="M731 107q-34 -56 -118.5 -91.5t-176.5 -35.5q-173 0 -272 86.5t-99 245.5q0 186 139.5 291t396.5 105q44 0 104 -15q0 189 -239 189q-141 0 -236 -47l-54 194q129 62 307 62q245 0 359 -111.5t114 -422.5v-229q0 -214 86 -269q-31 -54 -69 -66.5t-87 -12.5q-54 0 -97 40
t-58 87zM707 504q-64 13 -96 13q-296 0 -296 -194q0 -144 167 -144q225 0 225 225v100zM787 1508l-226 -293h-190l169 293h247z" />
    <glyph glyph-name="agrave" unicode="&#xe0;" horiz-adv-x="1091" 
d="M731 107q-34 -56 -118.5 -91.5t-176.5 -35.5q-173 0 -272 86.5t-99 245.5q0 186 139.5 291t396.5 105q44 0 104 -15q0 189 -239 189q-141 0 -236 -47l-54 194q129 62 307 62q245 0 359 -111.5t114 -422.5v-229q0 -214 86 -269q-31 -54 -69 -66.5t-87 -12.5q-54 0 -97 40
t-58 87zM707 504q-64 13 -96 13q-296 0 -296 -194q0 -144 167 -144q225 0 225 225v100zM466 1215l-226 293h267l169 -293h-210z" />
    <glyph glyph-name="acircumflex" unicode="&#xe2;" horiz-adv-x="1091" 
d="M731 107q-34 -56 -118.5 -91.5t-176.5 -35.5q-173 0 -272 86.5t-99 245.5q0 186 139.5 291t396.5 105q44 0 104 -15q0 189 -239 189q-141 0 -236 -47l-54 194q129 62 307 62q245 0 359 -111.5t114 -422.5v-229q0 -214 86 -269q-31 -54 -69 -66.5t-87 -12.5q-54 0 -97 40
t-58 87zM707 504q-64 13 -96 13q-296 0 -296 -194q0 -144 167 -144q225 0 225 225v100zM724 1215l-157 149l-139 -149h-267l355 315h107l368 -315h-267z" />
    <glyph glyph-name="adieresis" unicode="&#xe4;" horiz-adv-x="1091" 
d="M731 107q-34 -56 -118.5 -91.5t-176.5 -35.5q-173 0 -272 86.5t-99 245.5q0 186 139.5 291t396.5 105q44 0 104 -15q0 189 -239 189q-141 0 -236 -47l-54 194q129 62 307 62q245 0 359 -111.5t114 -422.5v-229q0 -214 86 -269q-31 -54 -69 -66.5t-87 -12.5q-54 0 -97 40
t-58 87zM707 504q-64 13 -96 13q-296 0 -296 -194q0 -144 167 -144q225 0 225 225v100zM238 1500q59 0 100.5 -42t41.5 -101t-41.5 -100.5t-100.5 -41.5t-101 41.5t-42 100.5t42 101t101 42zM858 1500q59 0 100.5 -42t41.5 -101t-41.5 -100.5t-100.5 -41.5t-101 41.5
t-42 100.5t42 101t101 42z" />
    <glyph glyph-name="atilde" unicode="&#xe3;" horiz-adv-x="1091" 
d="M731 107q-34 -56 -118.5 -91.5t-176.5 -35.5q-173 0 -272 86.5t-99 245.5q0 186 139.5 291t396.5 105q44 0 104 -15q0 189 -239 189q-141 0 -236 -47l-54 194q129 62 307 62q245 0 359 -111.5t114 -422.5v-229q0 -214 86 -269q-31 -54 -69 -66.5t-87 -12.5q-54 0 -97 40
t-58 87zM707 504q-64 13 -96 13q-296 0 -296 -194q0 -144 167 -144q225 0 225 225v100zM306 1185h-145q19 114 76.5 185.5t142.5 71.5q78 0 156 -38.5t100 -38.5q61 0 87 77h148q-38 -149 -93 -203t-138 -54q-62 0 -141.5 38.5t-103.5 38.5q-52 0 -89 -77z" />
    <glyph glyph-name="aring" unicode="&#xe5;" horiz-adv-x="1091" 
d="M731 107q-34 -56 -118.5 -91.5t-176.5 -35.5q-173 0 -272 86.5t-99 245.5q0 186 139.5 291t396.5 105q44 0 104 -15q0 189 -239 189q-141 0 -236 -47l-54 194q129 62 307 62q245 0 359 -111.5t114 -422.5v-229q0 -214 86 -269q-31 -54 -69 -66.5t-87 -12.5q-54 0 -97 40
t-58 87zM707 504q-64 13 -96 13q-296 0 -296 -194q0 -144 167 -144q225 0 225 225v100zM505 1216q-105 0 -178.5 58t-73.5 153q0 91 76 151t176 60q103 0 177.5 -59t74.5 -152t-74.5 -152t-177.5 -59zM504 1522q-44 0 -75 -25.5t-31 -70.5q0 -96 106 -96t106 96t-106 96z
" />
    <glyph glyph-name="ccedilla" unicode="&#xe7;" horiz-adv-x="1048" 
d="M975 986l-107 -187q-88 83 -236 83q-142 0 -224.5 -94.5t-82.5 -261.5q0 -337 321 -337q139 0 245 92l92 -197q-109 -68 -190.5 -86t-192.5 -18q-248 0 -391.5 144.5t-143.5 401.5q0 253 157 409t428 156q187 0 325 -105zM355 -425l-41 127q34 -9 70 -9q131 0 131 91
q0 33 -20.5 64t-51.5 39l85 89q180 -37 180 -207q0 -96 -71 -150.5t-184 -54.5q-51 0 -98 11z" />
    <glyph glyph-name="eacute" unicode="&#xe9;" horiz-adv-x="1177" 
d="M1091 459h-765q7 -128 88 -199t218 -71q171 0 260 89l97 -191q-132 -107 -394 -107q-245 0 -387.5 143.5t-142.5 400.5q0 253 156.5 410t375.5 157q233 0 374 -139t141 -354q0 -46 -21 -139zM335 647h526q-26 235 -260 235q-214 0 -266 -235zM897 1508l-226 -293h-190
l169 293h247z" />
    <glyph glyph-name="egrave" unicode="&#xe8;" horiz-adv-x="1177" 
d="M1091 459h-765q7 -128 88 -199t218 -71q171 0 260 89l97 -191q-132 -107 -394 -107q-245 0 -387.5 143.5t-142.5 400.5q0 253 156.5 410t375.5 157q233 0 374 -139t141 -354q0 -46 -21 -139zM335 647h526q-26 235 -260 235q-214 0 -266 -235zM576 1215l-226 293h267
l169 -293h-210z" />
    <glyph glyph-name="ecircumflex" unicode="&#xea;" horiz-adv-x="1177" 
d="M1091 459h-765q7 -128 88 -199t218 -71q171 0 260 89l97 -191q-132 -107 -394 -107q-245 0 -387.5 143.5t-142.5 400.5q0 253 156.5 410t375.5 157q233 0 374 -139t141 -354q0 -46 -21 -139zM335 647h526q-26 235 -260 235q-214 0 -266 -235zM771 1215l-157 149
l-139 -149h-267l355 315h107l368 -315h-267z" />
    <glyph glyph-name="edieresis" unicode="&#xeb;" horiz-adv-x="1177" 
d="M1091 459h-765q7 -128 88 -199t218 -71q171 0 260 89l97 -191q-132 -107 -394 -107q-245 0 -387.5 143.5t-142.5 400.5q0 253 156.5 410t375.5 157q233 0 374 -139t141 -354q0 -46 -21 -139zM335 647h526q-26 235 -260 235q-214 0 -266 -235zM278 1500q59 0 100.5 -42
t41.5 -101t-41.5 -100.5t-100.5 -41.5t-101 41.5t-42 100.5t42 101t101 42zM898 1500q59 0 100.5 -42t41.5 -101t-41.5 -100.5t-100.5 -41.5t-101 41.5t-42 100.5t42 101t101 42z" />
    <glyph glyph-name="iacute" unicode="&#xed;" horiz-adv-x="611" 
d="M207 0v866h-137v205h390v-1071h-253zM552 1508l-226 -293h-190l169 293h247z" />
    <glyph glyph-name="igrave" unicode="&#xec;" horiz-adv-x="611" 
d="M202 0v866h-137v205h390v-1071h-253zM291 1215l-226 293h267l169 -293h-210z" />
    <glyph glyph-name="icircumflex" unicode="&#xee;" horiz-adv-x="611" 
d="M202 0v866h-137v205h390v-1071h-253zM474 1215l-157 149l-139 -149h-267l355 315h107l368 -315h-267z" />
    <glyph glyph-name="idieresis" unicode="&#xef;" horiz-adv-x="611" 
d="M202 0v866h-137v205h390v-1071h-253zM-12 1500q59 0 100.5 -42t41.5 -101t-41.5 -100.5t-100.5 -41.5t-101 41.5t-42 100.5t42 101t101 42zM608 1500q59 0 100.5 -42t41.5 -101t-41.5 -100.5t-100.5 -41.5t-101 41.5t-42 100.5t42 101t101 42z" />
    <glyph glyph-name="ntilde" unicode="&#xf1;" horiz-adv-x="1209" 
d="M824 0v619q0 137 -52.5 200t-171.5 63q-55 0 -117.5 -31t-97.5 -77v-774h-250v1071h180l46 -100q102 120 301 120q191 0 301.5 -114.5t110.5 -319.5v-657h-250zM396 1185h-145q19 114 76.5 185.5t142.5 71.5q78 0 156 -38.5t100 -38.5q61 0 87 77h148q-38 -149 -93 -203
t-138 -54q-62 0 -141.5 38.5t-103.5 38.5q-52 0 -89 -77z" />
    <glyph glyph-name="oacute" unicode="&#xf3;" horiz-adv-x="1159" 
d="M65 538q0 245 141.5 399t373.5 154q244 0 379 -148t135 -405q0 -256 -137.5 -407t-376.5 -151q-244 0 -379.5 152.5t-135.5 405.5zM325 538q0 -354 255 -354q117 0 185.5 92t68.5 262q0 349 -254 349q-117 0 -186 -92t-69 -257zM817 1508l-226 -293h-190l169 293h247z
" />
    <glyph glyph-name="ograve" unicode="&#xf2;" horiz-adv-x="1159" 
d="M65 538q0 245 141.5 399t373.5 154q244 0 379 -148t135 -405q0 -256 -137.5 -407t-376.5 -151q-244 0 -379.5 152.5t-135.5 405.5zM325 538q0 -354 255 -354q117 0 185.5 92t68.5 262q0 349 -254 349q-117 0 -186 -92t-69 -257zM536 1215l-226 293h267l169 -293h-210z
" />
    <glyph glyph-name="ocircumflex" unicode="&#xf4;" horiz-adv-x="1159" 
d="M65 538q0 245 141.5 399t373.5 154q244 0 379 -148t135 -405q0 -256 -137.5 -407t-376.5 -151q-244 0 -379.5 152.5t-135.5 405.5zM325 538q0 -354 255 -354q117 0 185.5 92t68.5 262q0 349 -254 349q-117 0 -186 -92t-69 -257zM724 1215l-157 149l-139 -149h-267
l355 315h107l368 -315h-267z" />
    <glyph glyph-name="odieresis" unicode="&#xf6;" horiz-adv-x="1159" 
d="M65 538q0 245 141.5 399t373.5 154q244 0 379 -148t135 -405q0 -256 -137.5 -407t-376.5 -151q-244 0 -379.5 152.5t-135.5 405.5zM325 538q0 -354 255 -354q117 0 185.5 92t68.5 262q0 349 -254 349q-117 0 -186 -92t-69 -257zM288 1500q59 0 100.5 -42t41.5 -101
t-41.5 -100.5t-100.5 -41.5t-101 41.5t-42 100.5t42 101t101 42zM908 1500q59 0 100.5 -42t41.5 -101t-41.5 -100.5t-100.5 -41.5t-101 41.5t-42 100.5t42 101t101 42z" />
    <glyph glyph-name="otilde" unicode="&#xf5;" horiz-adv-x="1159" 
d="M65 538q0 245 141.5 399t373.5 154q244 0 379 -148t135 -405q0 -256 -137.5 -407t-376.5 -151q-244 0 -379.5 152.5t-135.5 405.5zM325 538q0 -354 255 -354q117 0 185.5 92t68.5 262q0 349 -254 349q-117 0 -186 -92t-69 -257zM386 1185h-145q19 114 76.5 185.5
t142.5 71.5q78 0 156 -38.5t100 -38.5q61 0 87 77h148q-38 -149 -93 -203t-138 -54q-62 0 -141.5 38.5t-103.5 38.5q-52 0 -89 -77z" />
    <glyph glyph-name="uacute" unicode="&#xfa;" horiz-adv-x="1210" 
d="M825 -1v90q-53 -45 -146 -77t-171 -32q-373 0 -373 396v695h250v-676q0 -206 185 -206q85 0 158 44t97 102v736h250v-1072h-250zM867 1508l-226 -293h-190l169 293h247z" />
    <glyph glyph-name="ugrave" unicode="&#xf9;" horiz-adv-x="1210" 
d="M825 -1v90q-53 -45 -146 -77t-171 -32q-373 0 -373 396v695h250v-676q0 -206 185 -206q85 0 158 44t97 102v736h250v-1072h-250zM556 1215l-226 293h267l169 -293h-210z" />
    <glyph glyph-name="ucircumflex" unicode="&#xfb;" horiz-adv-x="1210" 
d="M825 -1v90q-53 -45 -146 -77t-171 -32q-373 0 -373 396v695h250v-676q0 -206 185 -206q85 0 158 44t97 102v736h250v-1072h-250zM754 1215l-157 149l-139 -149h-267l355 315h107l368 -315h-267z" />
    <glyph glyph-name="udieresis" unicode="&#xfc;" horiz-adv-x="1210" 
d="M825 -1v90q-53 -45 -146 -77t-171 -32q-373 0 -373 396v695h250v-676q0 -206 185 -206q85 0 158 44t97 102v736h250v-1072h-250zM298 1500q59 0 100.5 -42t41.5 -101t-41.5 -100.5t-100.5 -41.5t-101 41.5t-42 100.5t42 101t101 42zM918 1500q59 0 100.5 -42t41.5 -101
t-41.5 -100.5t-100.5 -41.5t-101 41.5t-42 100.5t42 101t101 42z" />
    <glyph glyph-name="dagger" unicode="&#x2020;" horiz-adv-x="940" 
d="M575 888v-1122l-103 -120l-107 119v1123h-350v194h350v303h210v-303h350v-194h-350z" />
    <glyph glyph-name="degree" unicode="&#xb0;" 
d="M387 1282q0 99 71 169t171 70t170.5 -70t70.5 -169t-70.5 -169.5t-170.5 -70.5t-171 70.5t-71 169.5zM520 1282q0 -45 32 -77t77 -32t77 32t32 77t-32 77t-77 32t-77 -32t-32 -77z" />
    <glyph glyph-name="cent" unicode="&#xa2;" 
d="M755 1080h122l-58 -144q60 -21 110 -60l-91 -158q-37 35 -86 52l-188 -467q46 -18 105 -18q101 0 188 76l78 -168q-86 -53 -149.5 -68.5t-150.5 -15.5q-76 0 -141 19l-44 -110h-123l63 156q-166 109 -166 354q0 195 120.5 314.5t327.5 119.5q18 0 35 -1zM473 380l163 405
q-197 -17 -197 -257q0 -90 34 -148z" />
    <glyph glyph-name="sterling" unicode="&#xa3;" horiz-adv-x="1074" 
d="M576 0h-474v183q90 29 90 103v394h-82v201h82v113q0 236 121 366.5t316 130.5q220 0 330 -145l-130 -177q-80 103 -223 103q-154 0 -154 -270v-121h199v-201h-199v-449h193q77 0 126 25t102 96l187 -141q-124 -211 -484 -211z" />
    <glyph glyph-name="section" unicode="&#xa7;" horiz-adv-x="929" 
d="M65 84l91 240q134 -118 283 -118q171 0 171 112q0 107 -205 147q-152 30 -240 102t-88 173q0 116 77 188q-99 85 -99 235q0 143 121 235t301 92q72 0 167.5 -33t156.5 -82l-103 -218q-41 43 -105 72.5t-111 29.5q-157 0 -157 -103q0 -27 15.5 -47t40.5 -31.5t124 -34.5
q179 -41 256 -117.5t77 -200.5q0 -98 -66 -170q108 -80 108 -217q0 -173 -116.5 -267t-313.5 -94q-232 0 -385 107zM359 855q-38 -25 -38 -69q0 -45 32 -75t230 -79q1 11 1 76q0 41 -42 84.5t-183 62.5z" />
    <glyph glyph-name="bullet" unicode="&#x2022;" horiz-adv-x="1074" 
d="M223 574q0 132 93.5 225.5t225.5 93.5t225.5 -93.5t93.5 -225.5t-93.5 -225.5t-225.5 -93.5t-225.5 93.5t-93.5 225.5z" />
    <glyph glyph-name="paragraph" unicode="&#xb6;" horiz-adv-x="1074" 
d="M778 -250v1616h-158v-1616h-154v893q-348 0 -348 434q0 176 81 294t226 118h507v-1739h-154z" />
    <glyph glyph-name="germandbls" unicode="&#xdf;" horiz-adv-x="1119" 
d="M487 12l48 197q78 -12 79 -12q195 0 195 248q0 57 -16 103t-45.5 80.5t-145.5 120t-116 179.5q0 33 76.5 97t76.5 137q0 127 -139 127q-80 0 -112.5 -60t-32.5 -223v-1007h-250v1102q0 189 101.5 299t267.5 110q186 0 293 -79t107 -217q0 -63 -23 -122q-22 -57 -67 -111
q-37 -44 -38 -44q0 -10 76 -48q247 -124 247 -432q0 -220 -105 -348.5t-301 -128.5q-82 0 -176 32z" />
    <glyph glyph-name="registered" unicode="&#xae;" horiz-adv-x="1460" 
d="M75 661q0 292 206.5 498t498.5 206t498 -206t206 -498t-206 -498.5t-498 -206.5t-498.5 206.5t-206.5 498.5zM245 661q0 -221 157 -378t378 -157t377.5 156.5t156.5 378.5q0 221 -156.5 377.5t-377.5 156.5q-222 0 -378.5 -156.5t-156.5 -377.5zM940 267l-190 323h-66
v-323h-162v805h220q297 0 297 -235q0 -145 -133 -216l214 -354h-180zM742 926h-58v-197q94 0 127.5 5t49.5 27.5t16 68.5q0 96 -135 96z" />
    <glyph glyph-name="copyright" unicode="&#xa9;" horiz-adv-x="1460" 
d="M75 661q0 292 206.5 498t498.5 206t498 -206t206 -498t-206 -498.5t-498 -206.5t-498.5 206.5t-206.5 498.5zM245 661q0 -221 157 -378t378 -157t377.5 156.5t156.5 378.5q0 221 -156.5 377.5t-377.5 156.5q-222 0 -378.5 -156.5t-156.5 -377.5zM1012 1025l-56 -142
q-69 51 -167 51q-86 0 -138.5 -76.5t-52.5 -199.5q0 -119 55 -189.5t138 -70.5q91 0 162 92l92 -126q-115 -113 -265 -113q-159 0 -251 114t-92 298q0 178 97.5 297.5t252.5 119.5q131 0 225 -55z" />
    <glyph glyph-name="trademark" unicode="&#x2122;" horiz-adv-x="1319" 
d="M499 1332v-594h-160v594h-218v139h726l147 -454l145 454h123l122 -732h-155l-66 364l-117 -369h-103l-123 374l-61 -369h-156l98 593h-202z" />
    <glyph glyph-name="acute" unicode="&#xb4;" 
d="M817 1508l-226 -293h-190l169 293h247z" />
    <glyph glyph-name="dieresis" unicode="&#xa8;" 
d="M288 1500q59 0 100.5 -42t41.5 -101t-41.5 -100.5t-100.5 -41.5t-101 41.5t-42 100.5t42 101t101 42zM908 1500q59 0 100.5 -42t41.5 -101t-41.5 -100.5t-100.5 -41.5t-101 41.5t-42 100.5t42 101t101 42z" />
    <glyph glyph-name="notequal" unicode="&#x2260;" 
d="M174 325v201h271l163 219h-434v201h584l116 155h189l-116 -155h125v-201h-275l-163 -219h438v-201h-588l-121 -162h-188l120 162h-121z" />
    <glyph glyph-name="AE" unicode="&#xc6;" horiz-adv-x="1915" 
d="M1180 1234v-343h484v-221h-484v-439h664v-231h-924v297h-446l-183 -297h-289l888 1465h965v-231h-675zM920 496v581l-352 -581h352z" />
    <glyph glyph-name="Oslash" unicode="&#xd8;" horiz-adv-x="1400" 
d="M1173 1491h167l-155 -211q155 -194 155 -535q0 -354 -174.5 -562t-495.5 -208q-216 0 -360 113l-83 -113h-167l154 210q-154 205 -154 560q0 313 171.5 529.5t458.5 216.5q242 0 398 -116zM383 415l557 758q-92 87 -250 87q-174 0 -267 -139.5t-93 -375.5q0 -198 53 -330
zM1020 1055l-560 -763q82 -86 210 -86q195 0 297.5 138t102.5 401q0 191 -50 310z" />
    <glyph glyph-name="infinity" unicode="&#x221e;" 
d="M595 529q-113 -127 -248 -127q-121 0 -199 74t-78 195q0 109 82.5 187t191.5 78q143 0 250 -113q107 113 255 113q117 0 195 -74t78 -191q0 -122 -79.5 -195.5t-206.5 -73.5q-130 0 -241 127zM695 672q87 -107 151 -107q110 0 110 106q0 46 -34 76t-86 30
q-29 0 -72.5 -34t-68.5 -71zM498 672q-75 82 -99.5 93.5t-41.5 11.5q-120 0 -120 -106t110 -106q65 0 151 107z" />
    <glyph glyph-name="plusminus" unicode="&#xb1;" 
d="M713 535v-334h349v-201h-898v201h348v334h-348v201h348v343h201v-343h349v-201h-349z" />
    <glyph glyph-name="lessequal" unicode="&#x2264;" 
d="M192 627v161l799 383v-228l-528 -236l528 -239v-228zM1062 201v-201h-898v201h898z" />
    <glyph glyph-name="greaterequal" unicode="&#x2265;" 
d="M1034 627l-799 -387v228l528 239l-528 236v228l799 -383v-161zM1062 0h-898v201h898v-201z" />
    <glyph glyph-name="yen" unicode="&#xa5;" horiz-adv-x="1168" 
d="M251 520h204v81l-494 864h275l348 -625l348 625h275l-492 -864v-81h210v-194h-210v-326h-260v326h-204v194z" />
    <glyph glyph-name="mu" unicode="&#x3bc;" horiz-adv-x="1120" 
d="M340 -420h-250v1491h250v-676q0 -206 185 -206q85 0 158 44t97 102v736h250v-1072h-250v90q-129 -109 -297 -109q-85 0 -143 43v-443z" />
    <glyph glyph-name="partialdiff" unicode="&#x2202;" 
d="M645 1068q-48 79 -205 169.5t-287 90.5l60 213q206 0 422 -139.5t345 -364.5t129 -480q0 -251 -148.5 -414.5t-390.5 -163.5q-228 0 -354 133.5t-126 366.5q0 254 158 415.5t397 173.5zM770 885q-196 0 -313 -115t-117 -291q0 -129 65.5 -203.5t174.5 -74.5
q128 0 203.5 96t75.5 268q0 223 -89 320z" />
    <glyph glyph-name="summation" unicode="&#x2211;" horiz-adv-x="1075" 
d="M58 -173v210l395 697l-395 539v192h935v-232h-605l376 -495l-394 -679h662v-232h-974z" />
    <glyph glyph-name="product" unicode="&#x220f;" horiz-adv-x="1304" 
d="M1124 1233v-1403h-260v1403h-430v-1403h-260v1403h-130v232h1210v-232h-130z" />
    <glyph glyph-name="pi" unicode="&#x3c0;" horiz-adv-x="1232" 
d="M1025 863v-863h-253v863h-277v-863h-253v863h-167v208h1108v-208h-158z" />
    <glyph glyph-name="integral" unicode="&#x222b;" horiz-adv-x="1074" 
d="M-22 -297l100 142q77 -95 170 -95q71 0 114 74t43 167v1073q0 180 110.5 313t270.5 133q161 0 280 -102l-124 -142q-59 74 -166 74q-68 0 -110 -55t-42 -251v-1011q0 -188 -93 -315.5t-252 -127.5q-178 0 -301 123z" />
    <glyph glyph-name="ordfeminine" unicode="&#xaa;" horiz-adv-x="879" 
d="M556 881q-21 -38 -75 -62.5t-105 -24.5q-101 0 -164.5 55t-63.5 149q0 113 89.5 173t237.5 60q24 0 56 -6q0 59 -38.5 95t-98.5 36q-81 0 -152 -35l-40 126q92 44 202 44q112 0 180.5 -43.5t93.5 -125.5t25 -334q0 -107 58 -148q-45 -46 -113 -46q-64 0 -92 87zM533 1111
q-39 5 -52 5q-163 0 -163 -101q0 -91 85 -91q130 0 130 120v67z" />
    <glyph glyph-name="ordmasculine" unicode="&#xba;" horiz-adv-x="879" 
d="M105 1144q0 153 89 250t235 97q152 0 237.5 -93.5t85.5 -253.5q0 -158 -86.5 -254t-236.5 -96t-237 95.5t-87 254.5zM291 1144q0 -197 138 -197q137 0 137 197q0 194 -137 194q-138 0 -138 -194z" />
    <glyph glyph-name="Omega" unicode="&#x3a9;" horiz-adv-x="1370" 
d="M765 0v188q163 143 226.5 271t63.5 286q0 515 -385 515q-172 0 -263.5 -138.5t-91.5 -376.5q0 -143 85.5 -313.5t204.5 -242.5v-189h-560v202h218q-218 208 -218 543q0 313 169 529.5t456 216.5q318 0 486.5 -197t168.5 -549q0 -338 -233 -543h233v-202h-560z" />
    <glyph glyph-name="ae" unicode="&#xe6;" horiz-adv-x="1767" 
d="M692 504q-50 13 -96 13q-296 0 -296 -194q0 -144 167 -144q225 0 225 225v100zM1711 459h-775q7 -130 97 -203q85 -67 219 -67q170 0 260 89l97 -191q-131 -107 -394 -107q-190 0 -268 66l3 -46h-198q-13 34 -36 105q-39 -62 -132 -96q-78 -29 -163 -29q-167 0 -265 81
q-106 88 -106 251q0 209 171 312q140 84 365 84q51 0 104 -15q0 190 -239 190q-139 0 -236 -48l-54 194q129 62 307 62q284 0 389 -147q150 147 360 147q225 0 368 -133q147 -137 147 -360q0 -50 -21 -139zM1221 882q-108 0 -182 -65q-70 -62 -94 -170h536q-25 235 -260 235
z" />
    <glyph glyph-name="oslash" unicode="&#xf8;" horiz-adv-x="1159" 
d="M1094 1091l-123 -162q123 -146 123 -391q0 -256 -137.5 -407t-376.5 -151q-161 0 -277 69l-53 -69h-185l125 165q-125 150 -125 393q0 245 141.5 399t373.5 154q162 0 278 -67l51 67h185zM724 847q-57 40 -144 40q-117 0 -186 -92t-69 -257q0 -110 23 -185zM435 224
q57 -40 145 -40q117 0 185.5 92t68.5 262q0 106 -23 180z" />
    <glyph glyph-name="questiondown" unicode="&#xbf;" horiz-adv-x="897" 
d="M513 763q-68 0 -115.5 48t-47.5 116t47.5 116t115.5 48t116 -48t48 -116t-48 -116t-116 -48zM821 -319q-128 -101 -339 -101q-161 0 -270 90.5t-109 238.5q0 74 29.5 149.5t144.5 185.5t139.5 172.5t24.5 126.5q0 16 -14 84h192q2 -7 18 -51t16 -77q0 -64 -18 -122.5
t-49.5 -106.5t-134 -160.5t-102.5 -184.5q0 -140 183 -140q90 0 187 89z" />
    <glyph glyph-name="exclamdown" unicode="&#xa1;" horiz-adv-x="752" 
d="M382 763q-68 0 -116 48t-48 116t48 116t116 48t115.5 -48t47.5 -116t-47.5 -116t-115.5 -48zM504 -420h-260v410q0 199 78 699h104q78 -500 78 -700v-409z" />
    <glyph glyph-name="logicalnot" unicode="&#xac;" 
d="M1062 966v-556h-201v355h-697v201h898z" />
    <glyph glyph-name="radical" unicode="&#x221a;" 
d="M790 1296l-384 -1296h-179l-236 290l146 119l131 -167l364 1229h582v-175h-424z" />
    <glyph glyph-name="florin" unicode="&#x192;" horiz-adv-x="795" 
d="M-206 -205q84 16 158.5 61t82.5 95l160 933q-69 -2 -153 -20l43 220l148 1q97 425 463 425q58 0 178 -39l-51 -201q-103 36 -139 36q-160 0 -202 -222q91 -3 250 13l-20 -171q-174 -24 -266 -30l-161 -955q-22 -130 -106 -212.5t-178 -110t-122 -27.5q-22 0 -37 40
l-21 56q-9 26 -15 46q-6 21 -9 36q-3 16 -3 26z" />
    <glyph glyph-name="approxequal" unicode="&#x2248;" 
d="M317 619h-146q21 120 78.5 193.5t141.5 73.5q48 0 96 -10t197 -56q41 -11 73 -11q60 0 87 77h148q-40 -154 -94 -210.5t-137 -56.5q-47 0 -96 10t-144.5 38.5t-114.5 28.5q-52 0 -89 -77zM317 229h-146q21 120 78.5 193.5t141.5 73.5q48 0 96 -10t197 -56q41 -11 73 -11
q60 0 87 77h148q-40 -154 -94 -210.5t-137 -56.5q-47 0 -96 10t-144.5 38.5t-114.5 28.5q-52 0 -89 -77z" />
    <glyph glyph-name="glyph168" unicode="&#x394;" horiz-adv-x="1198" 
d="M-5 0v153l536 1312h185l489 -1312v-153h-1210zM616 1076l-330 -855h640z" />
    <glyph glyph-name="guillemotleft" unicode="&#xab;" 
d="M99 519v96l415 285v-197l-189 -140l189 -124v-197zM588 519v96l415 285v-197l-189 -140l189 -124v-197z" />
    <glyph glyph-name="guillemotright" unicode="&#xbb;" 
d="M139 242v197l189 124l-189 140v197l415 -285v-96zM628 242v197l189 124l-189 140v197l415 -285v-96z" />
    <glyph glyph-name="ellipsis" unicode="&#x2026;" horiz-adv-x="1504" 
d="M400 131q0 -62 -44 -106.5t-106 -44.5t-106 44.5t-44 106.5t44 106t106 44t106 -44t44 -106zM902 131q0 -62 -44 -106.5t-106 -44.5t-106 44.5t-44 106.5t44 106t106 44t106 -44t44 -106zM1404 131q0 -62 -44 -106.5t-106 -44.5t-106 44.5t-44 106.5t44 106t106 44
t106 -44t44 -106z" />
    <glyph glyph-name="nonbreakingspace" unicode="&#xa0;" horiz-adv-x="617" 
 />
    <glyph glyph-name="Agrave" unicode="&#xc0;" horiz-adv-x="1297" 
d="M1005 0l-107 297h-502l-102 -297h-289l584 1485h114l589 -1485h-287zM646 1037l-176 -541h352zM576 1585l-226 293h267l169 -293h-210z" />
    <glyph glyph-name="Atilde" unicode="&#xc3;" horiz-adv-x="1297" 
d="M1005 0l-107 297h-502l-102 -297h-289l584 1485h114l589 -1485h-287zM646 1037l-176 -541h352zM456 1555h-145q19 114 76.5 185.5t142.5 71.5q78 0 156 -38.5t100 -38.5q61 0 87 77h148q-38 -149 -93 -203t-138 -54q-62 0 -141.5 38.5t-103.5 38.5q-52 0 -89 -77z" />
    <glyph glyph-name="Otilde" unicode="&#xd5;" horiz-adv-x="1440" 
d="M80 745q0 313 171.5 529.5t458.5 216.5q316 0 483 -196t167 -550t-174.5 -562t-495.5 -208q-295 0 -452.5 206t-157.5 564zM350 745q0 -257 87 -398t253 -141q195 0 297.5 138t102.5 401q0 515 -380 515q-174 0 -267 -139.5t-93 -375.5zM506 1555h-145q19 114 76.5 185.5
t142.5 71.5q78 0 156 -38.5t100 -38.5q61 0 87 77h148q-38 -149 -93 -203t-138 -54q-62 0 -141.5 38.5t-103.5 38.5q-52 0 -89 -77z" />
    <glyph glyph-name="OE" unicode="&#x152;" horiz-adv-x="2055" 
d="M1320 1234v-343h484v-221h-484v-439h664v-231h-914v95q-159 -120 -400 -120q-295 0 -452.5 206t-157.5 564q0 313 171.5 529.5t458.5 216.5q230 0 380 -105v79h925v-231h-675zM330 745q0 -257 87 -398t253 -141q195 0 297.5 138t102.5 401q0 515 -380 515
q-174 0 -267 -139.5t-93 -375.5z" />
    <glyph glyph-name="oe" unicode="&#x153;" horiz-adv-x="1886" 
d="M1830 459h-765q7 -128 88 -199t218 -71q171 0 260 89l97 -191q-131 -107 -394 -107q-259 0 -401 158q-139 -158 -383 -158t-379.5 152.5t-135.5 405.5q0 245 141.5 399t373.5 154q262 0 398 -171q157 171 388 171q233 0 374 -139t141 -354q0 -46 -21 -139zM295 538
q0 -354 255 -354q117 0 185.5 92t68.5 262q0 349 -254 349q-117 0 -186 -92t-69 -257zM1074 647h526q-26 235 -260 235q-214 0 -266 -235z" />
    <glyph glyph-name="endash" unicode="&#x2013;" horiz-adv-x="752" 
d="M63 502v201h581v-201h-581z" />
    <glyph glyph-name="emdash" unicode="&#x2014;" horiz-adv-x="1504" 
d="M63 502v201h1369v-201h-1369z" />
    <glyph glyph-name="quotedblleft" unicode="&#x201c;" 
d="M490 1510l83 -111q-93 -71 -114 -105t-21 -72q0 -40 49 -89t49 -105q0 -162 -160 -162q-81 0 -125.5 52t-44.5 140q0 276 284 452zM950 1510l83 -111q-93 -71 -114 -105t-21 -72q0 -40 49 -89t49 -105q0 -162 -160 -162q-81 0 -125.5 52t-44.5 140q0 276 284 452z" />
    <glyph glyph-name="quotedblright" unicode="&#x201d;" 
d="M262 866l-83 111q93 71 114 105t21 72q0 40 -49 89t-49 105q0 162 160 162q81 0 125.5 -52t44.5 -140q0 -276 -284 -452zM722 866l-83 111q93 71 114 105t21 72q0 40 -49 89t-49 105q0 162 160 162q81 0 125.5 -52t44.5 -140q0 -276 -284 -452z" />
    <glyph glyph-name="quoteleft" unicode="&#x2018;" horiz-adv-x="752" 
d="M490 1510l83 -111q-93 -71 -114 -105t-21 -72q0 -40 49 -89t49 -105q0 -162 -160 -162q-81 0 -125.5 52t-44.5 140q0 276 284 452z" />
    <glyph glyph-name="quoteright" unicode="&#x2019;" horiz-adv-x="752" 
d="M262 866l-83 111q93 71 114 105t21 72q0 40 -49 89t-49 105q0 162 160 162q81 0 125.5 -52t44.5 -140q0 -276 -284 -452z" />
    <glyph glyph-name="divide" unicode="&#xf7;" 
d="M763 1020q0 -62 -44 -106.5t-106 -44.5t-106 44.5t-44 106.5t44 106t106 44t106 -44t44 -106zM1062 736v-201h-898v201h898zM763 230q0 -62 -44 -106.5t-106 -44.5t-106 44.5t-44 106.5t44 106t106 44t106 -44t44 -106z" />
    <glyph glyph-name="lozenge" unicode="&#x25ca;" horiz-adv-x="1229" 
d="M613 18l-618 617l618 617l617 -617zM613 1004l-369 -369l369 -369l368 369z" />
    <glyph glyph-name="ydieresis" unicode="&#xff;" horiz-adv-x="1093" 
d="M609 -172q-40 -107 -171.5 -177.5t-306.5 -70.5v221q289 0 289 145q0 96 -80 294l-335 831h259l292 -740l263 740h259zM230 1500q59 0 100.5 -42t41.5 -101t-41.5 -100.5t-100.5 -41.5t-101 41.5t-42 100.5t42 101t101 42zM850 1500q59 0 100.5 -42t41.5 -101
t-41.5 -100.5t-100.5 -41.5t-101 41.5t-42 100.5t42 101t101 42z" />
    <glyph glyph-name="Ydieresis" unicode="&#x178;" horiz-adv-x="1256" 
d="M759 601v-601h-260v601l-494 864h276l347 -625l348 625h275zM328 1870q59 0 100.5 -42t41.5 -101t-41.5 -100.5t-100.5 -41.5t-101 41.5t-42 100.5t42 101t101 42zM948 1870q59 0 100.5 -42t41.5 -101t-41.5 -100.5t-100.5 -41.5t-101 41.5t-42 100.5t42 101t101 42z" />
    <glyph glyph-name="fraction" unicode="&#x2044;" 
d="M236 -35h-168l884 1526h166z" />
    <glyph glyph-name="fraction" unicode="&#x2215;" 
d="M236 -35h-168l884 1526h166z" />
    <glyph glyph-name="Euro" unicode="&#x20ac;" 
d="M1150 1387l-98 -215q-80 87 -256 87q-255 0 -349 -312h513l-55 -151h-487q-3 -40 -3 -79q0 -41 3 -80h423l-54 -151h-341q85 -280 332 -280q200 0 295 143v-274q-118 -100 -314 -100q-234 0 -383 142q-138 132 -185 369h-127v151h107q-6 84 -1 159h-106v151h127
q52 236 199 382q161 161 391 161t369 -103z" />
    <glyph glyph-name="guilsinglleft" unicode="&#x2039;" horiz-adv-x="752" 
d="M141 519v96l415 285v-197l-189 -140l189 -124v-197z" />
    <glyph glyph-name="guilsinglright" unicode="&#x203a;" horiz-adv-x="752" 
d="M181 242v197l189 124l-189 140v197l415 -285v-96z" />
    <glyph glyph-name="fi" unicode="&#xfb01;" horiz-adv-x="1274" 
d="M887 0v865h-446v-865h-250v865h-156v206h157q8 197 116.5 318t280.5 121q89 0 217 -39l-74 -190q-82 27 -126 27q-71 0 -120.5 -61t-49.5 -150q0 -13 1 -26h703v-1071h-253zM1016 1486q60 0 102.5 -42.5t42.5 -102.5t-42.5 -102.5t-102.5 -42.5t-102.5 42.5t-42.5 102.5
t42.5 102.5t102.5 42.5z" />
    <glyph glyph-name="fl" unicode="&#xfb02;" horiz-adv-x="1304" 
d="M1128 1530v-1204q0 -198 118 -236q-58 -110 -198 -110q-170 0 -170 236v1044q-93 48 -212 48q-104 0 -166.5 -64.5t-62.5 -172.5h222v-206h-218v-865h-250v865h-156v206h157q9 208 124.5 323.5t302.5 115.5q41 0 83.5 -4.5t87.5 -13.5l88 -21z" />
    <glyph glyph-name="daggerdbl" unicode="&#x2021;" horiz-adv-x="940" 
d="M575 221v-455l-107 -128l-103 128v455h-350v194h350v473h-350v194h350v303h210v-303h350v-194h-350v-473h350v-194h-350z" />
    <glyph glyph-name="periodcentered" unicode="&#x2219;" horiz-adv-x="752" 
d="M174 741q0 75 52.5 127.5t127.5 52.5t127.5 -52.5t52.5 -127.5t-52.5 -128t-127.5 -53t-127.5 53t-52.5 128z" />
    <glyph glyph-name="quotesinglbase" unicode="&#x201a;" horiz-adv-x="752" 
d="M262 -367l-83 111q93 71 114 105t21 72q0 40 -49 89t-49 105q0 162 160 162q81 0 125.5 -52t44.5 -140q0 -276 -284 -452z" />
    <glyph glyph-name="quotedblbase" unicode="&#x201e;" horiz-adv-x="1074" 
d="M212 -367l-83 111q93 71 114 105t21 72q0 40 -49 89t-49 105q0 162 160 162q81 0 125.5 -52t44.5 -140q0 -276 -284 -452zM672 -367l-83 111q93 71 114 105t21 72q0 40 -49 89t-49 105q0 162 160 162q81 0 125.5 -52t44.5 -140q0 -276 -284 -452z" />
    <glyph glyph-name="perthousand" unicode="&#x2030;" horiz-adv-x="2121" 
d="M31 1146q0 152 89 248.5t228 96.5q137 0 218.5 -96t81.5 -268q0 -160 -86 -257t-223 -97q-308 0 -308 373zM217 1136q0 -100 32 -154t81 -54q132 0 132 207q0 200 -117 200q-128 0 -128 -199zM335 -20h-196l918 1511h195zM731 353q0 152 89 248.5t228 96.5
q137 0 218.5 -96t81.5 -267q0 -160 -86 -257.5t-223 -97.5q-308 0 -308 373zM917 344q0 -100 31.5 -154t81.5 -54q132 0 132 207q0 200 -117 200q-128 0 -128 -199zM1451 353q0 152 89 248.5t228 96.5q137 0 218.5 -96t81.5 -267q0 -160 -86 -257.5t-223 -97.5
q-308 0 -308 373zM1637 344q0 -100 31.5 -154t81.5 -54q132 0 132 207q0 200 -117 200q-128 0 -128 -199z" />
    <glyph glyph-name="Acircumflex" unicode="&#xc2;" horiz-adv-x="1297" 
d="M1005 0l-107 297h-502l-102 -297h-289l584 1485h114l589 -1485h-287zM646 1037l-176 -541h352zM824 1585l-157 149l-139 -149h-267l355 315h107l368 -315h-267z" />
    <glyph glyph-name="Ecircumflex" unicode="&#xca;" horiz-adv-x="1165" 
d="M410 1234v-343h484v-221h-484v-439h664v-231h-924v1465h935v-231h-675zM764 1585l-157 149l-139 -149h-267l355 315h107l368 -315h-267z" />
    <glyph glyph-name="Aacute" unicode="&#xc1;" horiz-adv-x="1297" 
d="M1005 0l-107 297h-502l-102 -297h-289l584 1485h114l589 -1485h-287zM646 1037l-176 -541h352zM937 1878l-226 -293h-190l169 293h247z" />
    <glyph glyph-name="Edieresis" unicode="&#xcb;" horiz-adv-x="1165" 
d="M410 1234v-343h484v-221h-484v-439h664v-231h-924v1465h935v-231h-675zM298 1870q59 0 100.5 -42t41.5 -101t-41.5 -100.5t-100.5 -41.5t-101 41.5t-42 100.5t42 101t101 42zM918 1870q59 0 100.5 -42t41.5 -101t-41.5 -100.5t-100.5 -41.5t-101 41.5t-42 100.5t42 101
t101 42z" />
    <glyph glyph-name="Egrave" unicode="&#xc8;" horiz-adv-x="1165" 
d="M410 1234v-343h484v-221h-484v-439h664v-231h-924v1465h935v-231h-675zM566 1585l-226 293h267l169 -293h-210z" />
    <glyph glyph-name="Iacute" unicode="&#xcd;" horiz-adv-x="570" 
d="M155 0v1465h260v-1465h-260zM571 1878l-226 -293h-190l169 293h247z" />
    <glyph glyph-name="Icircumflex" unicode="&#xce;" horiz-adv-x="570" 
d="M155 0v1465h260v-1465h-260zM434 1585l-157 149l-139 -149h-267l355 315h107l368 -315h-267z" />
    <glyph glyph-name="Idieresis" unicode="&#xcf;" horiz-adv-x="570" 
d="M155 0v1465h260v-1465h-260zM-2 1870q59 0 100.5 -42t41.5 -101t-41.5 -100.5t-100.5 -41.5t-101 41.5t-42 100.5t42 101t101 42zM618 1870q59 0 100.5 -42t41.5 -101t-41.5 -100.5t-100.5 -41.5t-101 41.5t-42 100.5t42 101t101 42z" />
    <glyph glyph-name="Igrave" unicode="&#xcc;" horiz-adv-x="570" 
d="M155 0v1465h260v-1465h-260zM241 1585l-226 293h267l169 -293h-210z" />
    <glyph glyph-name="Oacute" unicode="&#xd3;" horiz-adv-x="1440" 
d="M80 745q0 313 171.5 529.5t458.5 216.5q316 0 483 -196t167 -550t-174.5 -562t-495.5 -208q-295 0 -452.5 206t-157.5 564zM350 745q0 -257 87 -398t253 -141q195 0 297.5 138t102.5 401q0 515 -380 515q-174 0 -267 -139.5t-93 -375.5zM997 1878l-226 -293h-190l169 293
h247z" />
    <glyph glyph-name="Ocircumflex" unicode="&#xd4;" horiz-adv-x="1440" 
d="M80 745q0 313 171.5 529.5t458.5 216.5q316 0 483 -196t167 -550t-174.5 -562t-495.5 -208q-295 0 -452.5 206t-157.5 564zM350 745q0 -257 87 -398t253 -141q195 0 297.5 138t102.5 401q0 515 -380 515q-174 0 -267 -139.5t-93 -375.5zM884 1585l-157 149l-139 -149
h-267l355 315h107l368 -315h-267z" />
    <glyph glyph-name="apple" horiz-adv-x="1024" 
d="M128 350v768h768v-768h-768zM256 478h512v512h-512v-512z" />
    <glyph glyph-name="Ograve" unicode="&#xd2;" horiz-adv-x="1440" 
d="M80 745q0 313 171.5 529.5t458.5 216.5q316 0 483 -196t167 -550t-174.5 -562t-495.5 -208q-295 0 -452.5 206t-157.5 564zM350 745q0 -257 87 -398t253 -141q195 0 297.5 138t102.5 401q0 515 -380 515q-174 0 -267 -139.5t-93 -375.5zM666 1585l-226 293h267l169 -293
h-210z" />
    <glyph glyph-name="Uacute" unicode="&#xda;" horiz-adv-x="1388" 
d="M150 1465h260v-993q0 -118 72 -192t198 -74q141 0 219.5 72.5t78.5 198.5v988h260v-1008q0 -226 -151.5 -354t-404.5 -128q-255 0 -393.5 125t-138.5 358v1007zM977 1878l-226 -293h-190l169 293h247z" />
    <glyph glyph-name="Ucircumflex" unicode="&#xdb;" horiz-adv-x="1388" 
d="M150 1465h260v-993q0 -118 72 -192t198 -74q141 0 219.5 72.5t78.5 198.5v988h260v-1008q0 -226 -151.5 -354t-404.5 -128q-255 0 -393.5 125t-138.5 358v1007zM837 1585l-157 149l-139 -149h-267l355 315h107l368 -315h-267z" />
    <glyph glyph-name="Ugrave" unicode="&#xd9;" horiz-adv-x="1388" 
d="M150 1465h260v-993q0 -118 72 -192t198 -74q141 0 219.5 72.5t78.5 198.5v988h260v-1008q0 -226 -151.5 -354t-404.5 -128q-255 0 -393.5 125t-138.5 358v1007zM646 1585l-226 293h267l169 -293h-210z" />
    <glyph glyph-name="dotlessi" unicode="&#x131;" horiz-adv-x="611" 
d="M202 0v866h-137v205h390v-1071h-253z" />
    <glyph glyph-name="circumflex" unicode="&#x2c6;" 
d="M724 1215l-157 149l-139 -149h-267l355 315h107l368 -315h-267z" />
    <glyph glyph-name="tilde" unicode="&#x2dc;" 
d="M386 1185h-145q19 114 76.5 185.5t142.5 71.5q78 0 156 -38.5t100 -38.5q61 0 87 77h148q-38 -149 -93 -203t-138 -54q-62 0 -141.5 38.5t-103.5 38.5q-52 0 -89 -77z" />
    <glyph glyph-name="macron" unicode="&#x2c9;" 
d="M971 1396v-181h-738v181h738z" />
    <glyph glyph-name="breve" unicode="&#x2d8;" 
d="M928 1540q0 -139 -96 -232t-248 -93q-146 0 -232.5 89t-86.5 236h141q0 -64 52.5 -102.5t125.5 -38.5q90 0 145.5 37.5t55.5 103.5h143z" />
    <glyph glyph-name="dotaccent" unicode="&#x2d9;" 
d="M580 1517q62 0 106.5 -44.5t44.5 -106.5t-44.5 -106.5t-106.5 -44.5q-63 0 -107.5 44.5t-44.5 106.5t44.5 106.5t107.5 44.5z" />
    <glyph glyph-name="ring" unicode="&#x2da;" 
d="M605 1216q-105 0 -178.5 58t-73.5 153q0 91 76 151t176 60q103 0 177.5 -59t74.5 -152t-74.5 -152t-177.5 -59zM604 1522q-44 0 -75 -25.5t-31 -70.5q0 -96 106 -96t106 96t-106 96z" />
    <glyph glyph-name="cedilla" unicode="&#xb8;" 
d="M465 -425l-41 127q34 -9 70 -9q131 0 131 91q0 33 -20.5 64t-51.5 39l85 89q180 -37 180 -207q0 -96 -71 -150.5t-184 -54.5q-51 0 -98 11z" />
    <glyph glyph-name="hungarumlaut" unicode="&#x2dd;" 
d="M617 1508l-226 -293h-190l169 293h247zM1037 1508l-226 -293h-190l169 293h247z" />
    <glyph glyph-name="ogonek" unicode="&#x2db;" 
d="M660 143l74 -143q-41 -13 -71.5 -54.5t-30.5 -93.5q0 -44 38 -73.5t87 -29.5q52 0 94 39l65 -124q-78 -58 -202 -58q-122 0 -193 59.5t-71 154.5q0 225 210 323z" />
    <glyph glyph-name="caron" unicode="&#x2c7;" 
d="M991 1530l-368 -315h-107l-355 315h267l139 -149l157 149h267z" />
    <glyph glyph-name="Lslash" unicode="&#x141;" horiz-adv-x="1132" 
d="M545 923l-135 -91v-601h662v-231h-922v657l-129 -87v174l129 84v637h260v-469l135 88v-161z" />
    <glyph glyph-name="lslash" unicode="&#x142;" horiz-adv-x="604" 
d="M567 912l-139 -93v-493q0 -198 118 -236q-58 -110 -198 -110q-170 0 -170 236v437l-135 -90v174l135 88v645l250 60v-543l139 90v-165z" />
    <glyph glyph-name="Scaron" unicode="&#x160;" horiz-adv-x="1047" 
d="M80 81l96 233q154 -108 303 -108q229 0 229 160q0 75 -54 143t-222.5 152.5t-227 139t-90 129.5t-31.5 166q0 170 124.5 282t319.5 112q254 0 373 -95l-79 -224q-137 98 -289 98q-90 0 -139.5 -47.5t-49.5 -123.5q0 -126 279 -262q147 -72 212 -132.5t99 -141t34 -179.5
q0 -178 -140.5 -293t-376.5 -115q-205 0 -370 106zM931 1900l-368 -315h-107l-355 315h267l139 -149l157 149h267z" />
    <glyph glyph-name="scaron" unicode="&#x161;" horiz-adv-x="882" 
d="M113 69l89 199q112 -89 253 -89q146 0 146 104q0 61 -44 100t-171 92q-277 115 -277 322q0 139 106 216.5t271 77.5q167 0 314 -75l-72 -194q-82 70 -228 70q-131 0 -131 -104q0 -41 43 -74t184 -88.5t203 -134.5t62 -191q0 -149 -110.5 -234.5t-300.5 -85.5
q-107 0 -171.5 17.5t-165.5 71.5zM895 1530l-368 -315h-107l-355 315h267l139 -149l157 149h267z" />
    <glyph glyph-name="Zcaron" unicode="&#x17d;" horiz-adv-x="1147" 
d="M80 0v84l611 1150h-601v231h955v-84l-613 -1150h635v-231h-987zM991 1900l-368 -315h-107l-355 315h267l139 -149l157 149h267z" />
    <glyph glyph-name="zcaron" unicode="&#x17e;" horiz-adv-x="1082" 
d="M65 0v85l581 768h-571v218h936v-88l-560 -765h566v-218h-952zM961 1530l-368 -315h-107l-355 315h267l139 -149l157 149h267z" />
    <glyph glyph-name="brokenbar" unicode="&#xa6;" 
d="M504 673v837h206v-837h-206zM504 -420v837h206v-837h-206z" />
    <glyph glyph-name="Eth" unicode="&#xd0;" horiz-adv-x="1316" 
d="M150 694h-124v204h124v566q311 11 391 11q320 0 507.5 -187.5t187.5 -497.5q0 -790 -761 -790h-325v694zM547 898v-204h-137v-457q63 -6 136 -6q197 0 308.5 143t111.5 400q0 470 -437 470q-42 0 -119 -7v-339h137z" />
    <glyph glyph-name="eth" unicode="&#xf0;" horiz-adv-x="1159" 
d="M667 1091q-40 64 -94 140l-148 -78l-58 102l136 67q-94 105 -219 188h354q36 -36 75 -81l162 88l58 -96l-153 -82q183 -272 248.5 -450.5t65.5 -342.5q0 -256 -136 -411t-378 -155t-378.5 154.5t-136.5 411.5q0 242 139 396.5t376 154.5q41 0 87 -6zM315 546
q0 -345 265 -345q128 0 196 93.5t68 251.5q0 339 -264 339q-126 0 -195.5 -91.5t-69.5 -247.5z" />
    <glyph glyph-name="Yacute" unicode="&#xdd;" horiz-adv-x="1256" 
d="M759 601v-601h-260v601l-494 864h276l347 -625l348 625h275zM917 1878l-226 -293h-190l169 293h247z" />
    <glyph glyph-name="Thorn" unicode="&#xde;" horiz-adv-x="1142" 
d="M380 329v-329h-260v1464l260 2v-202q25 1 44 1q347 0 507.5 -106.5t160.5 -332.5q0 -504 -594 -504q-44 0 -118 7zM380 1029v-469q66 -7 104 -7q178 0 260 59.5t82 193.5q0 228 -367 228q-41 0 -79 -5z" />
    <glyph glyph-name="thorn" unicode="&#xfe;" horiz-adv-x="1193" 
d="M365 27v-447h-250v1890l250 60v-531q94 92 231 92q512 0 512 -564q0 -263 -141.5 -405t-386.5 -142q-118 0 -215 47zM365 809v-563q68 -55 159 -55q173 0 248.5 82.5t75.5 260.5q0 190 -75 267.5t-248 77.5q-90 0 -160 -70z" />
    <glyph glyph-name="minus" unicode="&#x2212;" 
d="M1062 736v-201h-898v201h898z" />
    <glyph glyph-name="onesuperior" unicode="&#xb9;" horiz-adv-x="924" 
d="M409 565v651l-188 -112v184q208 105 297 220h81v-943h-190z" />
    <glyph glyph-name="twosuperior" unicode="&#xb2;" horiz-adv-x="924" 
d="M154 565v63l271 421q81 126 81 207q0 35 -35.5 63.5t-82.5 28.5q-105 0 -166 -101l-109 103q73 170 289 170q140 0 217 -69.5t77 -184.5q0 -76 -44.5 -184t-206.5 -339h309v-178h-600z" />
    <glyph glyph-name="threesuperior" unicode="&#xb3;" horiz-adv-x="929" 
d="M147 651l92 159q67 -75 153 -75q133 0 133 112q0 133 -144 133h-40v162h36q118 0 118 109q0 89 -109 89q-71 0 -129 -65l-85 144q77 101 223 101q127 0 208.5 -70.5t81.5 -179.5q0 -127 -99 -202q129 -76 129 -230q0 -136 -86.5 -209.5t-238.5 -73.5q-141 0 -243 96z" />
    <glyph glyph-name="onehalf" unicode="&#xbd;" horiz-adv-x="1668" 
d="M273 565v651l-188 -112v184q207 105 297 220h81v-943h-190zM380 -35h-168l884 1526h166zM1008 0v63l271 421q81 126 81 207q0 35 -36 63.5t-82 28.5q-105 0 -166 -101l-109 103q73 170 289 170q140 0 217 -69.5t77 -184.5q0 -76 -44.5 -184t-206.5 -339h309v-178h-600z
" />
    <glyph glyph-name="onequarter" unicode="&#xbc;" horiz-adv-x="1668" 
d="M470 565h-190v651l-188 -112v184q206 104 297 220h81v-943zM1329 1491l-882 -1526h-168l884 1526h166zM1482 230v-230h-190v230h-400v111l490 602h100v-559h89v-154h-89zM1292 642l-198 -258h198v258z" />
    <glyph glyph-name="threequarters" unicode="&#xbe;" horiz-adv-x="1668" 
d="M63 651l91 159q68 -75 154 -75q133 0 133 112q0 133 -144 133h-40v162h36q118 0 118 109q0 89 -109 89q-72 0 -129 -65l-86 144q78 101 224 101q126 0 208 -70.5t82 -179.5q0 -127 -99 -202q129 -76 129 -230q0 -135 -87 -209t-238 -74q-141 0 -243 96zM1363 1491
l-882 -1526h-168l884 1526h166zM1517 230v-230h-190v230h-400v111l490 602h100v-559h89v-154h-89zM1327 642l-198 -258h198v258z" />
    <glyph glyph-name="mu1" unicode="&#xb5;" horiz-adv-x="1120" 
d="M340 -420h-250v1491h250v-676q0 -206 185 -206q85 0 158 44t97 102v736h250v-1072h-250v90q-129 -109 -297 -109q-85 0 -143 43v-443z" />
    <glyph glyph-name="Ohm" unicode="&#x2126;" horiz-adv-x="1370" 
d="M765 0v188q163 143 226.5 271t63.5 286q0 515 -385 515q-172 0 -263.5 -138.5t-91.5 -376.5q0 -143 85.5 -313.5t204.5 -242.5v-189h-560v202h218q-218 208 -218 543q0 313 169 529.5t456 216.5q318 0 486.5 -197t168.5 -549q0 -338 -233 -543h233v-202h-560z" />
    <glyph glyph-name="Delta" unicode="&#x2206;" horiz-adv-x="1198" 
d="M-5 0v153l536 1312h185l489 -1312v-153h-1210zM616 1076l-330 -855h640z" />
    <glyph glyph-name="yacute" unicode="&#xfd;" horiz-adv-x="1093" 
d="M609 -172q-40 -107 -171.5 -177.5t-306.5 -70.5v221q289 0 289 145q0 96 -80 294l-335 831h259l292 -740l263 740h259zM817 1508l-226 -293h-190l169 293h247z" />
    <glyph glyph-name="multiply" unicode="&#xd7;" 
d="M759 629l314 -315l-143 -142l-314 315l-317 -317l-142 141l317 317l-321 321l142 142l321 -321l317 317l143 -141z" />
    <glyph glyph-name="sfthyphen" unicode="&#xad;" horiz-adv-x="752" 
d="M109 476v235h529v-235h-529z" />
    <glyph glyph-name="dotlessj" horiz-adv-x="751" 
d="M-12 -420v223q200 0 270.5 47.5t70.5 170.5v844h-193v206h443v-1046q0 -230 -144.5 -337.5t-446.5 -107.5z" />
    <glyph glyph-name="f007" horiz-adv-x="752" 
d="M414 1718l82 -97q-68 -68 -78.5 -88.5t-10.5 -33.5q0 -27 42 -66.5t42 -89.5q0 -58 -39 -93t-97 -35q-128 0 -128 175q0 183 187 328z" />
    <glyph glyph-name="franc" unicode="&#x20a3;" horiz-adv-x="1195" 
d="M692 520v-194h-282v-326h-260v326h-112v194h112v945h965v-231h-705v-343h515v-221h-515v-150h282z" />
    <glyph glyph-name="Gbreve" unicode="&#x11e;" horiz-adv-x="1375" 
d="M1232 1346l-109 -209q-46 41 -142 81.5t-165 40.5q-216 0 -341 -146.5t-125 -392.5q0 -234 122.5 -374t333.5 -140q139 0 229 76v288h-203v222h463v-656q-93 -76 -239.5 -118.5t-291.5 -42.5q-315 0 -499.5 206.5t-184.5 545.5t201 551t541 212q241 0 410 -144z
M1088 1910q0 -139 -96 -232t-248 -93q-146 0 -232.5 89t-86.5 236h141q0 -64 52.5 -102.5t125.5 -38.5q90 0 145.5 37.5t55.5 103.5h143z" />
    <glyph glyph-name="gbreve" unicode="&#x11f;" horiz-adv-x="1028" 
d="M55 -275l158 195q131 -120 292 -120q108 0 178 32t70 88q0 95 -155 95q-42 0 -125 -10t-125 -10q-258 0 -258 185q0 53 43 104t100 75q-183 119 -183 337q0 172 126 284.5t310 112.5q144 0 241 -54l98 114l173 -157l-119 -87q62 -94 62 -222q0 -183 -111.5 -292.5
t-281.5 -109.5q-27 0 -72 5l-41 6q-7 0 -53.5 -21.5t-46.5 -44.5q0 -40 69 -40q31 0 104 15t125 15q365 0 365 -293q0 -162 -146 -254.5t-352 -92.5q-246 0 -445 145zM305 695q0 -95 52.5 -152.5t141.5 -57.5t137 56t48 154q0 81 -51.5 137t-133.5 56q-86 0 -140 -54
t-54 -139zM808 1540q0 -139 -96 -232t-248 -93q-146 0 -232.5 89t-86.5 236h141q0 -64 52.5 -102.5t125.5 -38.5q90 0 145.5 37.5t55.5 103.5h143z" />
    <glyph glyph-name="Idotaccent" unicode="&#x130;" horiz-adv-x="570" 
d="M155 0v1465h260v-1465h-260zM288 1887q62 0 106.5 -44.5t44.5 -106.5t-44.5 -106.5t-106.5 -44.5q-63 0 -107.5 44.5t-44.5 106.5t44.5 106.5t107.5 44.5z" />
    <glyph glyph-name="Scedilla" unicode="&#x15e;" horiz-adv-x="1047" 
d="M80 81l96 233q154 -108 303 -108q229 0 229 160q0 75 -54 143t-222.5 152.5t-227 139t-90 129.5t-31.5 166q0 170 124.5 282t319.5 112q254 0 373 -95l-79 -224q-137 98 -289 98q-90 0 -139.5 -47.5t-49.5 -123.5q0 -126 279 -262q147 -72 212 -132.5t99 -141t34 -179.5
q0 -178 -140.5 -293t-376.5 -115q-205 0 -370 106zM315 -425l-41 127q34 -9 70 -9q131 0 131 91q0 33 -20.5 64t-51.5 39l85 89q180 -37 180 -207q0 -96 -71 -150.5t-184 -54.5q-51 0 -98 11z" />
    <glyph glyph-name="scedilla" unicode="&#x15f;" horiz-adv-x="882" 
d="M69 69l89 199q112 -89 253 -89q146 0 146 104q0 61 -44 100t-171 92q-277 115 -277 322q0 139 106 216.5t271 77.5q167 0 314 -75l-72 -194q-82 70 -228 70q-131 0 -131 -104q0 -41 43 -74t184 -88.5t203 -134.5t62 -191q0 -149 -110.5 -234.5t-300.5 -85.5
q-107 0 -171.5 17.5t-165.5 71.5zM335 -425l-41 127q34 -9 70 -9q131 0 131 91q0 33 -20.5 64t-51.5 39l85 89q180 -37 180 -207q0 -96 -71 -150.5t-184 -54.5q-51 0 -98 11z" />
    <glyph glyph-name="Cacute" unicode="&#x106;" horiz-adv-x="1253" 
d="M1154 1387l-107 -215q-87 87 -280 87q-183 0 -300 -153.5t-117 -388.5t108.5 -373t289.5 -138q207 0 324 148l121 -210q-159 -169 -466 -169t-477 202t-170 551q0 325 188.5 543.5t482.5 218.5q252 0 403 -103zM997 1878l-226 -293h-190l169 293h247z" />
    <glyph glyph-name="cacute" unicode="&#x107;" horiz-adv-x="1048" 
d="M975 986l-107 -187q-88 83 -236 83q-142 0 -224.5 -94.5t-82.5 -261.5q0 -337 321 -337q139 0 245 92l92 -197q-109 -68 -190.5 -86t-192.5 -18q-248 0 -391.5 144.5t-143.5 401.5q0 253 157 409t428 156q187 0 325 -105zM837 1508l-226 -293h-190l169 293h247z" />
    <glyph glyph-name="Ccaron" unicode="&#x10c;" horiz-adv-x="1253" 
d="M1154 1387l-107 -215q-87 87 -280 87q-183 0 -300 -153.5t-117 -388.5t108.5 -373t289.5 -138q207 0 324 148l121 -210q-159 -169 -466 -169t-477 202t-170 551q0 325 188.5 543.5t482.5 218.5q252 0 403 -103zM1151 1900l-368 -315h-107l-355 315h267l139 -149l157 149
h267z" />
    <glyph glyph-name="ccaron" unicode="&#x10d;" horiz-adv-x="1048" 
d="M975 986l-107 -187q-88 83 -236 83q-142 0 -224.5 -94.5t-82.5 -261.5q0 -337 321 -337q139 0 245 92l92 -197q-109 -68 -190.5 -86t-192.5 -18q-248 0 -391.5 144.5t-143.5 401.5q0 253 157 409t428 156q187 0 325 -105zM991 1530l-368 -315h-107l-355 315h267l139 -149
l157 149h267z" />
    <glyph glyph-name="dcroat" unicode="&#x111;" horiz-adv-x="1189" 
d="M1153 1362v-141h-79v-1221h-250v65q-31 -34 -105 -59.5t-153 -25.5q-224 0 -352.5 142t-128.5 396t147.5 413.5t369.5 159.5q122 0 222 -50v180h-292v141h292v108l250 60v-168h79zM824 815q-80 64 -167 64q-150 0 -231 -91.5t-81 -262.5q0 -334 322 -334q36 0 88.5 21.5
t68.5 43.5v559z" />
    <glyph glyph-name="overscore" unicode="&#xaf;" 
d="M-8 1466v209h1215v-209h-1215z" />
    <glyph glyph-name="commaaccenthigh" horiz-adv-x="752" 
d="M292 1048l-63 85q66 50 81 73.5t15 49.5t-34.5 60.5t-34.5 75.5q0 118 117 118q123 0 123 -139q0 -196 -204 -323z" />
    <glyph glyph-name="middot" unicode="&#xb7;" horiz-adv-x="752" 
d="M205 741q0 75 52.5 127.5t127.5 52.5t127.5 -52.5t52.5 -127.5t-52.5 -128t-127.5 -53t-127.5 53t-52.5 128z" />
    <glyph glyph-name="Abreve" unicode="&#x102;" horiz-adv-x="1297" 
d="M1005 0l-107 297h-502l-102 -297h-289l584 1485h114l589 -1485h-287zM646 1037l-176 -541h352zM958 1910q0 -139 -96 -232t-248 -93q-146 0 -232.5 89t-86.5 236h141q0 -64 52.5 -102.5t125.5 -38.5q90 0 145.5 37.5t55.5 103.5h143z" />
    <glyph glyph-name="abreve" unicode="&#x103;" horiz-adv-x="1091" 
d="M731 107q-34 -56 -118.5 -91.5t-176.5 -35.5q-173 0 -272 86.5t-99 245.5q0 186 139.5 291t396.5 105q44 0 104 -15q0 189 -239 189q-141 0 -236 -47l-54 194q129 62 307 62q245 0 359 -111.5t114 -422.5v-229q0 -214 86 -269q-31 -54 -69 -66.5t-87 -12.5q-54 0 -97 40
t-58 87zM707 504q-64 13 -96 13q-296 0 -296 -194q0 -144 167 -144q225 0 225 225v100zM828 1540q0 -139 -96 -232t-248 -93q-146 0 -232.5 89t-86.5 236h141q0 -64 52.5 -102.5t125.5 -38.5q90 0 145.5 37.5t55.5 103.5h143z" />
    <glyph glyph-name="Aogonek" unicode="&#x104;" horiz-adv-x="1297" 
d="M1004 2l-106 295h-502l-102 -297h-289l584 1485h114l589 -1485h-45q-21 0 -61.5 -42t-40.5 -106q0 -44 38 -73.5t87 -29.5q52 0 94 39l65 -124q-78 -58 -202 -58q-122 0 -193 59.5t-71 154.5q0 108 41 182zM646 1037l-176 -541h352z" />
    <glyph glyph-name="aogonek" unicode="&#x105;" horiz-adv-x="1091" 
d="M759 53q-20 28 -28 54q-34 -56 -118.5 -91.5t-176.5 -35.5q-173 0 -272 86.5t-99 245.5q0 186 139.5 291t396.5 105q44 0 104 -15q0 189 -239 189q-141 0 -236 -47l-54 194q129 62 307 62q245 0 359 -111.5t114 -422.5v-229q0 -214 86 -269q-27 -45 -52.5 -59t-60.5 -18
q-67 -48 -67 -130q0 -44 38 -73.5t87 -29.5q52 0 94 39l65 -124q-78 -58 -202 -58q-122 0 -193 59.5t-71 154.5q0 148 79 233zM707 504q-64 13 -96 13q-296 0 -296 -194q0 -144 167 -144q225 0 225 225v100z" />
    <glyph glyph-name="Dcaron" unicode="&#x10e;" horiz-adv-x="1316" 
d="M475 0h-325v1464q311 11 391 11q320 0 507.5 -187.5t187.5 -497.5q0 -790 -761 -790zM410 1237v-1000q63 -6 136 -6q197 0 308.5 143t111.5 400q0 470 -437 470q-42 0 -119 -7zM1021 1900l-368 -315h-107l-355 315h267l139 -149l157 149h267z" />
    <glyph glyph-name="dcaron" unicode="&#x10f;" horiz-adv-x="1502" 
d="M804 0v65q-31 -34 -105 -59.5t-153 -25.5q-224 0 -352.5 142t-128.5 396t147.5 413.5t369.5 159.5q122 0 222 -50v429l250 60v-1530h-250zM804 815q-80 64 -167 64q-150 0 -231 -91.5t-81 -262.5q0 -334 322 -334q36 0 88.5 21.5t68.5 43.5v559zM1212 1048l-63 85
q66 50 81 73.5t15 49.5t-34.5 60.5t-34.5 75.5q0 118 117 118q123 0 123 -139q0 -196 -204 -323z" />
    <glyph glyph-name="Dslash" unicode="&#x110;" horiz-adv-x="1316" 
d="M150 694h-124v204h124v566q311 11 391 11q320 0 507.5 -187.5t187.5 -497.5q0 -790 -761 -790h-325v694zM547 898v-204h-137v-457q63 -6 136 -6q197 0 308.5 143t111.5 400q0 470 -437 470q-42 0 -119 -7v-339h137z" />
    <glyph glyph-name="Eogonek" unicode="&#x118;" horiz-adv-x="1165" 
d="M731 0h-581v1465h935v-231h-675v-343h484v-221h-484v-439h664v-231h-100q-21 0 -61.5 -42t-40.5 -106q0 -44 38 -73.5t87 -29.5q52 0 94 39l65 -124q-78 -58 -202 -58q-122 0 -193 59.5t-71 154.5q0 107 41 180z" />
    <glyph glyph-name="eogonek" unicode="&#x119;" horiz-adv-x="1177" 
d="M503 -14q-208 27 -323 167.5t-115 370.5q0 253 156.5 410t375.5 157q233 0 374 -139t141 -354q0 -46 -21 -139h-765q7 -128 88 -199t218 -71q171 0 260 89l97 -191q-94 -76 -261 -99q-76 -45 -76 -136q0 -44 38 -73.5t87 -29.5q52 0 94 39l65 -124q-78 -58 -202 -58
t-194 60.5t-70 163.5q0 87 33 156zM335 647h526q-26 235 -260 235q-214 0 -266 -235z" />
    <glyph glyph-name="Ecaron" unicode="&#x11a;" horiz-adv-x="1165" 
d="M410 1234v-343h484v-221h-484v-439h664v-231h-924v1465h935v-231h-675zM1041 1900l-368 -315h-107l-355 315h267l139 -149l157 149h267z" />
    <glyph glyph-name="ecaron" unicode="&#x11b;" horiz-adv-x="1177" 
d="M1091 459h-765q7 -128 88 -199t218 -71q171 0 260 89l97 -191q-132 -107 -394 -107q-245 0 -387.5 143.5t-142.5 400.5q0 253 156.5 410t375.5 157q233 0 374 -139t141 -354q0 -46 -21 -139zM335 647h526q-26 235 -260 235q-214 0 -266 -235zM1021 1530l-368 -315h-107
l-355 315h267l139 -149l157 149h267z" />
    <glyph glyph-name="Lacute" unicode="&#x139;" horiz-adv-x="1132" 
d="M150 0v1465h260v-1234h662v-231h-922zM667 1878l-226 -293h-190l169 293h247z" />
    <glyph glyph-name="lacute" unicode="&#x13a;" horiz-adv-x="604" 
d="M178 1470l250 60v-1204q0 -198 118 -236q-58 -110 -198 -110q-170 0 -170 236v1254zM597 1878l-226 -293h-190l169 293h247z" />
    <glyph glyph-name="Lcaron" unicode="&#x13d;" horiz-adv-x="1132" 
d="M150 0v1465h260v-1234h662v-231h-922zM742 1048l-63 85q66 50 81 73.5t15 49.5t-34.5 60.5t-34.5 75.5q0 118 117 118q123 0 123 -139q0 -196 -204 -323z" />
    <glyph glyph-name="lcaron" unicode="&#x13e;" horiz-adv-x="773" 
d="M178 1470l250 60v-1204q0 -198 118 -236q-58 -110 -198 -110q-170 0 -170 236v1254zM602 1048l-63 85q66 50 81 73.5t15 49.5t-34.5 60.5t-34.5 75.5q0 118 117 118q123 0 123 -139q0 -196 -204 -323z" />
    <glyph glyph-name="Ldot" unicode="&#x13f;" horiz-adv-x="1132" 
d="M150 0v1465h260v-1234h662v-231h-922zM654 741q0 75 52.5 127.5t127.5 52.5t127.5 -52.5t52.5 -127.5t-52.5 -128t-127.5 -53t-127.5 53t-52.5 128z" />
    <glyph glyph-name="ldot" unicode="&#x140;" horiz-adv-x="894" 
d="M178 1470l250 60v-1204q0 -198 118 -236q-58 -110 -198 -110q-170 0 -170 236v1254zM564 741q0 75 52.5 127.5t127.5 52.5t127.5 -52.5t52.5 -127.5t-52.5 -128t-127.5 -53t-127.5 53t-52.5 128z" />
    <glyph glyph-name="Nacute" unicode="&#x143;" horiz-adv-x="1367" 
d="M1111 -20l-711 927v-908h-250v1466h125l692 -884v884h250v-1485h-106zM947 1878l-226 -293h-190l169 293h247z" />
    <glyph glyph-name="nacute" unicode="&#x144;" horiz-adv-x="1209" 
d="M824 0v619q0 137 -52.5 200t-171.5 63q-55 0 -117.5 -31t-97.5 -77v-774h-250v1071h180l46 -100q102 120 301 120q191 0 301.5 -114.5t110.5 -319.5v-657h-250zM897 1508l-226 -293h-190l169 293h247z" />
    <glyph glyph-name="Ncaron" unicode="&#x147;" horiz-adv-x="1367" 
d="M1111 -20l-711 927v-908h-250v1466h125l692 -884v884h250v-1485h-106zM1101 1900l-368 -315h-107l-355 315h267l139 -149l157 149h267z" />
    <glyph glyph-name="ncaron" unicode="&#x148;" horiz-adv-x="1209" 
d="M824 0v619q0 137 -52.5 200t-171.5 63q-55 0 -117.5 -31t-97.5 -77v-774h-250v1071h180l46 -100q102 120 301 120q191 0 301.5 -114.5t110.5 -319.5v-657h-250zM1021 1530l-368 -315h-107l-355 315h267l139 -149l157 149h267z" />
    <glyph glyph-name="Odblacute" unicode="&#x150;" horiz-adv-x="1440" 
d="M80 745q0 313 171.5 529.5t458.5 216.5q316 0 483 -196t167 -550t-174.5 -562t-495.5 -208q-295 0 -452.5 206t-157.5 564zM350 745q0 -257 87 -398t253 -141q195 0 297.5 138t102.5 401q0 515 -380 515q-174 0 -267 -139.5t-93 -375.5zM797 1878l-226 -293h-190l169 293
h247zM1217 1878l-226 -293h-190l169 293h247z" />
    <glyph glyph-name="odblacute" unicode="&#x151;" horiz-adv-x="1159" 
d="M65 538q0 245 141.5 399t373.5 154q244 0 379 -148t135 -405q0 -256 -137.5 -407t-376.5 -151q-244 0 -379.5 152.5t-135.5 405.5zM325 538q0 -354 255 -354q117 0 185.5 92t68.5 262q0 349 -254 349q-117 0 -186 -92t-69 -257zM657 1508l-226 -293h-190l169 293h247z
M1077 1508l-226 -293h-190l169 293h247z" />
    <glyph glyph-name="Racute" unicode="&#x154;" horiz-adv-x="1251" 
d="M976 0l-391 605q-59 1 -165 7v-612h-270v1465q22 0 169 7.5t237 7.5q558 0 558 -432q0 -130 -77 -237t-194 -151l433 -660h-300zM420 1239v-407q72 -6 110 -6q163 0 238.5 46t75.5 179q0 108 -81 151t-255 43q-42 0 -88 -6zM837 1878l-226 -293h-190l169 293h247z" />
    <glyph glyph-name="racute" unicode="&#x155;" horiz-adv-x="875" 
d="M754 838q-67 44 -147 44q-87 0 -154.5 -79t-67.5 -193v-610h-250v1071h250v-98q105 118 279 118q128 0 196 -39zM767 1508l-226 -293h-190l169 293h247z" />
    <glyph glyph-name="Rcaron" unicode="&#x158;" horiz-adv-x="1251" 
d="M976 0l-391 605q-59 1 -165 7v-612h-270v1465q22 0 169 7.5t237 7.5q558 0 558 -432q0 -130 -77 -237t-194 -151l433 -660h-300zM420 1239v-407q72 -6 110 -6q163 0 238.5 46t75.5 179q0 108 -81 151t-255 43q-42 0 -88 -6zM1001 1900l-368 -315h-107l-355 315h267
l139 -149l157 149h267z" />
    <glyph glyph-name="rcaron" unicode="&#x159;" horiz-adv-x="875" 
d="M754 838q-67 44 -147 44q-87 0 -154.5 -79t-67.5 -193v-610h-250v1071h250v-98q105 118 279 118q128 0 196 -39zM941 1530l-368 -315h-107l-355 315h267l139 -149l157 149h267z" />
    <glyph glyph-name="Sacute" unicode="&#x15a;" horiz-adv-x="1047" 
d="M80 81l96 233q154 -108 303 -108q229 0 229 160q0 75 -54 143t-222.5 152.5t-227 139t-90 129.5t-31.5 166q0 170 124.5 282t319.5 112q254 0 373 -95l-79 -224q-137 98 -289 98q-90 0 -139.5 -47.5t-49.5 -123.5q0 -126 279 -262q147 -72 212 -132.5t99 -141t34 -179.5
q0 -178 -140.5 -293t-376.5 -115q-205 0 -370 106zM787 1878l-226 -293h-190l169 293h247z" />
    <glyph glyph-name="sacute" unicode="&#x15b;" horiz-adv-x="882" 
d="M69 69l89 199q112 -89 253 -89q146 0 146 104q0 61 -44 100t-171 92q-277 115 -277 322q0 139 106 216.5t271 77.5q167 0 314 -75l-72 -194q-82 70 -228 70q-131 0 -131 -104q0 -41 43 -74t184 -88.5t203 -134.5t62 -191q0 -149 -110.5 -234.5t-300.5 -85.5
q-107 0 -171.5 17.5t-165.5 71.5zM677 1508l-226 -293h-190l169 293h247z" />
    <glyph glyph-name="Tcommaaccent" unicode="&#x21a;" horiz-adv-x="1253" 
d="M746 1234v-1234h-260v1234h-466v231h1213v-231h-487zM532 -552l-63 85q66 50 81 73.5t15 49.5t-34.5 60.5t-34.5 75.5q0 118 117 118q123 0 123 -139q0 -196 -204 -323z" />
    <glyph glyph-name="tcommaaccent" unicode="&#x21b;" horiz-adv-x="812" 
d="M173 870h-124v201h124v218l250 92v-310h294v-201h-294v-469q0 -115 36 -162.5t126 -47.5t168 49v-230q-87 -30 -248 -30q-160 0 -246 90.5t-86 257.5v542zM392 -552l-63 85q66 50 81 73.5t15 49.5t-34.5 60.5t-34.5 75.5q0 118 117 118q123 0 123 -139q0 -196 -204 -323z
" />
    <glyph glyph-name="Tcaron" unicode="&#x164;" horiz-adv-x="1253" 
d="M746 1234v-1234h-260v1234h-466v231h1213v-231h-487zM1041 1900l-368 -315h-107l-355 315h267l139 -149l157 149h267z" />
    <glyph glyph-name="tcaron" unicode="&#x165;" horiz-adv-x="1117" 
d="M173 870h-124v201h124v218l250 92v-310h294v-201h-294v-469q0 -115 36 -162.5t126 -47.5t168 49v-230q-87 -30 -248 -30q-160 0 -246 90.5t-86 257.5v542zM885 917l-63 85q66 50 81 73.5t15 49.5t-34.5 60.5t-34.5 75.5q0 118 117 118q123 0 123 -139q0 -196 -204 -323z
" />
    <glyph glyph-name="Uring" unicode="&#x16e;" horiz-adv-x="1388" 
d="M150 1465h260v-993q0 -118 72 -192t198 -74q141 0 219.5 72.5t78.5 198.5v988h260v-1008q0 -226 -151.5 -354t-404.5 -128q-255 0 -393.5 125t-138.5 358v1007zM695 1586q-105 0 -178.5 58t-73.5 153q0 91 76 151t176 60q103 0 177.5 -59t74.5 -152t-74.5 -152
t-177.5 -59zM694 1892q-44 0 -75 -25.5t-31 -70.5q0 -96 106 -96t106 96t-106 96z" />
    <glyph glyph-name="uring" unicode="&#x16f;" horiz-adv-x="1210" 
d="M825 -1v90q-53 -45 -146 -77t-171 -32q-373 0 -373 396v695h250v-676q0 -206 185 -206q85 0 158 44t97 102v736h250v-1072h-250zM605 1216q-105 0 -178.5 58t-73.5 153q0 91 76 151t176 60q103 0 177.5 -59t74.5 -152t-74.5 -152t-177.5 -59zM604 1522q-44 0 -75 -25.5
t-31 -70.5q0 -96 106 -96t106 96t-106 96z" />
    <glyph glyph-name="Udblacute" unicode="&#x170;" horiz-adv-x="1388" 
d="M150 1465h260v-993q0 -118 72 -192t198 -74q141 0 219.5 72.5t78.5 198.5v988h260v-1008q0 -226 -151.5 -354t-404.5 -128q-255 0 -393.5 125t-138.5 358v1007zM767 1878l-226 -293h-190l169 293h247zM1187 1878l-226 -293h-190l169 293h247z" />
    <glyph glyph-name="udblacute" unicode="&#x171;" horiz-adv-x="1210" 
d="M825 -1v90q-53 -45 -146 -77t-171 -32q-373 0 -373 396v695h250v-676q0 -206 185 -206q85 0 158 44t97 102v736h250v-1072h-250zM667 1508l-226 -293h-190l169 293h247zM1087 1508l-226 -293h-190l169 293h247z" />
    <glyph glyph-name="Zacute" unicode="&#x179;" horiz-adv-x="1147" 
d="M80 0v84l611 1150h-601v231h955v-84l-613 -1150h635v-231h-987zM817 1878l-226 -293h-190l169 293h247z" />
    <glyph glyph-name="zacute" unicode="&#x17a;" horiz-adv-x="1082" 
d="M65 0v85l581 768h-571v218h936v-88l-560 -765h566v-218h-952zM797 1508l-226 -293h-190l169 293h247z" />
    <glyph glyph-name="Zdot" unicode="&#x17b;" horiz-adv-x="1147" 
d="M80 0v84l611 1150h-601v231h955v-84l-613 -1150h635v-231h-987zM570 1887q62 0 106.5 -44.5t44.5 -106.5t-44.5 -106.5t-106.5 -44.5q-63 0 -107.5 44.5t-44.5 106.5t44.5 106.5t107.5 44.5z" />
    <glyph glyph-name="zdot" unicode="&#x17c;" horiz-adv-x="1082" 
d="M65 0v85l581 768h-571v218h936v-88l-560 -765h566v-218h-952zM520 1517q62 0 106.5 -44.5t44.5 -106.5t-44.5 -106.5t-106.5 -44.5q-63 0 -107.5 44.5t-44.5 106.5t44.5 106.5t107.5 44.5z" />
    <glyph glyph-name="currency" unicode="&#xa4;" 
d="M987 203l-147 148q-118 -75 -249 -75t-250 75l-147 -148l-126 132l147 144q-73 122 -73 247q0 124 73 246l-147 144l126 132l148 -148q118 75 249 75t249 -74l147 147l127 -132l-147 -144q74 -122 74 -246q0 -125 -74 -247l147 -144zM321 726q0 -113 78 -191.5t191 -78.5
q111 0 190 79t79 191t-78.5 190.5t-190.5 78.5q-113 0 -191 -78.5t-78 -190.5z" />
    <glyph glyph-name="questiongreek" unicode="&#x37e;" horiz-adv-x="752" 
d="M174 940q0 75 52 127.5t128 52.5q77 0 129 -52.5t52 -127.5q0 -74 -53.5 -127t-127.5 -53t-127 53.5t-53 126.5zM217 -375l-86 111q184 135 184 215q0 26 -20 57q-96 47 -96 129q0 63 51.5 101t122.5 38q70 0 121 -51t51 -123q0 -121 -56 -226t-272 -251z" />
    <glyph glyph-name="tonos" unicode="&#x384;" 
d="M784 1610l-176 -330h-192l108 330h260z" />
    <glyph glyph-name="dieresistonos" unicode="&#x385;" 
d="M690 1550l-31 -336h-122l-35 336h188zM926 1507q59 0 102 -41t43 -100q0 -58 -42.5 -100.5t-100.5 -42.5q-59 0 -101.5 42t-42.5 101q0 60 41 100.5t101 40.5zM414 1366h2q0 -59 -41.5 -101t-100.5 -42t-102 42t-43 101q0 60 41.5 100.5t101.5 40.5t101 -40.5t41 -100.5z
" />
    <glyph glyph-name="Alphatonos" unicode="&#x386;" horiz-adv-x="1317" 
d="M1026 0l-108 297h-502l-101 -297h-290l585 1485h113l590 -1485h-287zM666 1036l-177 -540h353zM385 1464l-160 -366h-188l100 366h248z" />
    <glyph glyph-name="anoteleia" unicode="&#x387;" horiz-adv-x="752" 
d="M174 741q0 75 53.5 128t126.5 53q74 0 127.5 -53.5t53.5 -127.5t-53 -128t-128 -54t-127.5 54.5t-52.5 127.5z" />
    <glyph glyph-name="Epsilontonos" unicode="&#x388;" horiz-adv-x="1411" 
d="M655 1235v-344h486v-221h-486v-439h664v-231h-924v1464h936v-229h-676zM244 1464l-160 -366h-188l100 366h248z" />
    <glyph glyph-name="Etatonos" unicode="&#x389;" horiz-adv-x="1647" 
d="M1239 0v659h-584v-659h-260v1464h260v-573h584v573h256v-1464h-256zM244 1464l-160 -366h-188l100 366h248z" />
    <glyph glyph-name="Iotatonos" unicode="&#x38a;" horiz-adv-x="809" 
d="M395 0v1464h260v-1464h-260zM244 1464l-160 -366h-188l100 366h248z" />
    <glyph glyph-name="Omicrontonos" unicode="&#x38c;" horiz-adv-x="1579" 
d="M219 745q0 223 86 393.5t221.5 261.5t323.5 91q313 0 481 -194.5t168 -551.5q0 -358 -175 -564t-495 -206q-298 0 -454 207.5t-156 562.5zM489 745q0 -267 88.5 -402.5t251.5 -135.5q195 0 297.5 136t102.5 402q0 515 -379 515q-175 0 -268 -139t-93 -376zM244 1464
l-160 -366h-188l100 366h248z" />
    <glyph glyph-name="Upsilontonos" unicode="&#x38e;" horiz-adv-x="1587" 
d="M1092 600v-600h-261v600l-495 864h276l349 -624l348 624h274zM244 1464l-160 -366h-188l100 366h248z" />
    <glyph glyph-name="Omegatonos" unicode="&#x38f;" horiz-adv-x="1626" 
d="M969 0v80q138 174 214.5 345.5t76.5 369.5q0 226 -98.5 350.5t-276.5 124.5q-177 0 -275 -128.5t-98 -336.5q0 -187 75.5 -361.5t219.5 -363.5v-80h-594v223q125 0 256 -22q-227 287 -227 600q0 300 178 500t473 200q304 0 470.5 -188.5t166.5 -511.5q0 -144 -59.5 -303
t-170.5 -297q121 20 259 20v-221h-590zM244 1464l-160 -366h-188l100 366h248z" />
    <glyph glyph-name="iotadieresistonos" unicode="&#x390;" horiz-adv-x="594" 
d="M547 96q-63 -114 -211 -114q-182 0 -182 241v848h252v-733q0 -106 32 -162.5t109 -79.5zM373 1550l-33 -336h-123l-33 336h189zM602 1507q59 0 101 -41t42 -100q0 -58 -42.5 -100.5t-100.5 -42.5q-59 0 -100 42t-41 101q0 60 40.5 100.5t100.5 40.5zM-45 1507
q60 0 100.5 -40.5t40.5 -100.5q0 -59 -41.5 -101t-99.5 -42q-60 0 -101.5 41.5t-41.5 101.5t41 100.5t102 40.5z" />
    <glyph glyph-name="Alpha" unicode="&#x391;" horiz-adv-x="1296" 
d="M1006 0l-109 297h-502l-100 -297h-291l586 1485h112l590 -1485h-286zM645 1036l-176 -540h352z" />
    <glyph glyph-name="Beta" unicode="&#x392;" horiz-adv-x="1219" 
d="M598 0h-448v1464q345 15 415 15q227 0 356.5 -98t129.5 -279q0 -174 -185 -275q273 -94 273 -393q0 -200 -151 -317t-390 -117zM410 1255v-350q78 -4 127 -4q254 0 254 191q0 170 -232 170q-60 0 -149 -7zM410 702v-485q79 -6 129 -6q163 0 246 55.5t83 200.5
q0 123 -71.5 180.5t-255.5 57.5q-70 0 -131 -3z" />
    <glyph glyph-name="Gamma" unicode="&#x393;" horiz-adv-x="1116" 
d="M1061 1235h-651v-1235h-260v1464h911v-229z" />
    <glyph glyph-name="Epsilon" unicode="&#x395;" horiz-adv-x="1165" 
d="M410 1235v-344h485v-221h-485v-439h663v-231h-923v1464h935v-229h-675z" />
    <glyph glyph-name="Zeta" unicode="&#x396;" horiz-adv-x="1147" 
d="M80 0v84l610 1151h-600v229h954v-84l-612 -1149h635v-231h-987z" />
    <glyph glyph-name="Eta" unicode="&#x397;" horiz-adv-x="1401" 
d="M993 0v659h-583v-659h-260v1464h260v-573h583v573h256v-1464h-256z" />
    <glyph glyph-name="Theta" unicode="&#x398;" horiz-adv-x="1470" 
d="M80 745q0 305 175.5 525.5t489.5 220.5q309 0 477.5 -199t168.5 -547q0 -333 -173 -551.5t-493 -218.5q-321 0 -483 213.5t-162 556.5zM342 745q0 -266 100 -405t289 -139q198 0 297.5 146t99.5 398q0 521 -389 521q-196 0 -296.5 -149t-100.5 -372zM1012 637h-553v223
h553v-223z" />
    <glyph glyph-name="Iota" unicode="&#x399;" horiz-adv-x="569" 
d="M156 0v1464h260v-1464h-260z" />
    <glyph glyph-name="Kappa" unicode="&#x39a;" horiz-adv-x="1264" 
d="M981 0l-408 625l-163 -224v-401h-260v1464h260v-700l497 700h297l-459 -639l547 -825h-311z" />
    <glyph glyph-name="Lambda" unicode="&#x39b;" horiz-adv-x="1288" 
d="M1280 0h-299l-342 989l-338 -989h-293l574 1485h120z" />
    <glyph glyph-name="Mu" unicode="&#x39c;" horiz-adv-x="1526" 
d="M1516 0h-252l-152 788l-295 -808h-92l-297 808l-158 -788h-250l295 1464h138l317 -987l309 987h138z" />
    <glyph glyph-name="Nu" unicode="&#x39d;" horiz-adv-x="1366" 
d="M1110 -20l-711 927v-907h-249v1464h124l693 -882v882h250v-1484h-107z" />
    <glyph glyph-name="Xi" unicode="&#x39e;" horiz-adv-x="1292" 
d="M1190 0h-1088v219h418v459h-305v207h305v362h-405v217h1063v-217h-406v-362h305v-207h-305v-459h418v-219z" />
    <glyph glyph-name="Omicron" unicode="&#x39f;" horiz-adv-x="1440" 
d="M80 745q0 312 171.5 529t459.5 217q313 0 481 -194.5t168 -551.5q0 -358 -175 -564t-495 -206q-298 0 -454 207.5t-156 562.5zM350 745q0 -267 88 -402.5t252 -135.5q195 0 297.5 136t102.5 402q0 515 -379 515q-176 0 -268.5 -139t-92.5 -376z" />
    <glyph glyph-name="Pi" unicode="&#x3a0;" horiz-adv-x="1360" 
d="M1210 0h-260v1235h-540v-1235h-260v1464h1060v-1464z" />
    <glyph glyph-name="Rho" unicode="&#x3a1;" horiz-adv-x="1202" 
d="M410 539v-539h-260v1464q287 11 305 11q342 0 504.5 -106t162.5 -333q0 -504 -594 -504q-45 0 -118 7zM410 1239v-469q67 -6 104 -6q178 0 260 58.5t82 193.5q0 227 -367 227q-55 0 -79 -4z" />
    <glyph glyph-name="Sigma" unicode="&#x3a3;" horiz-adv-x="1192" 
d="M1112 1235h-571l338 -430l-410 -574h637v-231h-1047v84l521 696l-482 602v82h1014v-229z" />
    <glyph glyph-name="Tau" unicode="&#x3a4;" horiz-adv-x="1253" 
d="M745 1235v-1235h-260v1235h-465v229h1213v-229h-488z" />
    <glyph glyph-name="Upsilon" unicode="&#x3a5;" horiz-adv-x="1255" 
d="M760 600v-600h-260v600l-496 864h277l348 -624l348 624h274z" />
    <glyph glyph-name="Phi" unicode="&#x3a6;" horiz-adv-x="1628" 
d="M944 1372q288 -17 448 -180.5t160 -437.5q0 -265 -162 -438t-446 -193v-152h-258v152q-288 17 -449 180t-161 436q0 265 163 439t447 194v152h258v-152zM690 324v850q-360 -47 -360 -429q0 -176 94 -288t266 -133zM940 322q358 45 358 428q0 177 -93 288.5t-265 132.5
v-849z" />
    <glyph glyph-name="Chi" unicode="&#x3a7;" horiz-adv-x="1231" 
d="M942 0l-346 526l-320 -526h-272l440 760l-403 706l264 -2l297 -493l328 493h272l-465 -708l488 -756h-283z" />
    <glyph glyph-name="Psi" unicode="&#x3a8;" horiz-adv-x="1667" 
d="M1544 913q0 -244 -153.5 -400t-425.5 -187v-330h-258v328q-278 25 -431 176.5t-153 396.5v567h256v-546q0 -157 85 -258t247 -119v923h250v-925q160 19 243.5 119.5t83.5 250.5v555h256v-551z" />
    <glyph glyph-name="Iotadieresis" unicode="&#x3aa;" horiz-adv-x="569" 
d="M156 0v1464h260v-1464h-260zM580 1870q58 0 100.5 -41.5t42.5 -99.5q0 -59 -42.5 -101.5t-100.5 -42.5q-59 0 -100.5 42.5t-41.5 101.5t41 100t101 41zM-6 1870q59 0 100 -41t41 -100t-41.5 -101.5t-99.5 -42.5q-60 0 -102 42t-42 102t41.5 100.5t102.5 40.5z" />
    <glyph glyph-name="Upsilondieresis" unicode="&#x3ab;" horiz-adv-x="1255" 
d="M760 600v-600h-260v600l-496 864h277l348 -624l348 624h274zM946 1870q59 0 101.5 -41.5t42.5 -99.5q0 -59 -43 -101.5t-101 -42.5q-59 0 -100 42.5t-41 101.5t40.5 100t100.5 41zM328 1870q59 0 100 -41t41 -100t-41.5 -101.5t-99.5 -42.5q-60 0 -102 42t-42 102
t41.5 100.5t102.5 40.5z" />
    <glyph glyph-name="alphatonos" unicode="&#x3ac;" horiz-adv-x="1217" 
d="M1153 59q-36 -79 -158 -79q-96 0 -164 116q-103 -116 -301 -116q-209 0 -333.5 145.5t-124.5 404.5q0 241 139 401.5t373 160.5q176 0 268 -105q63 105 149 105q110 0 148 -76q-107 -49 -107 -254v-434q0 -218 111 -269zM797 287v532q-82 66 -185 66q-129 0 -207.5 -100
t-78.5 -255q0 -110 38 -193t96 -117t130 -34q111 0 207 101zM874 1610l-176 -330h-190l108 330h258z" />
    <glyph glyph-name="epsilontonos" unicode="&#x3ad;" horiz-adv-x="1040" 
d="M985 94q-200 -117 -459 -117q-184 0 -300.5 81.5t-116.5 226.5q0 80 52 151t148 111q-85 22 -132.5 85.5t-47.5 147.5q0 113 109 213.5t317 100.5q186 0 383 -74l-70 -201q-159 72 -321 72q-71 0 -115.5 -32.5t-44.5 -86.5q0 -57 49.5 -93t151.5 -36q87 0 172 6v-192
q-102 6 -185 6q-96 0 -151 -43t-55 -111q0 -62 51 -96.5t147 -34.5q180 0 320 107zM836 1610l-177 -330h-190l109 330h258z" />
    <glyph glyph-name="etatonos" unicode="&#x3ae;" horiz-adv-x="1210" 
d="M821 -336v954q0 143 -53.5 204t-163.5 61q-48 0 -109 -29t-102 -86v-768h-250v1071h181l47 -106q108 127 295 127q183 0 294 -114.5t111 -320.5v-933zM918 1610l-177 -330h-190l108 330h259z" />
    <glyph glyph-name="iotatonos" unicode="&#x3af;" horiz-adv-x="594" 
d="M547 96q-63 -114 -211 -114q-182 0 -182 241v848h252v-733q0 -106 32 -162.5t109 -79.5zM520 1610l-176 -330h-190l108 330h258z" />
    <glyph glyph-name="upsilondieresistonos" unicode="&#x3b0;" horiz-adv-x="1184" 
d="M1049 477q0 -241 -117 -368t-342 -127q-455 0 -455 491v598h250v-616q0 -265 209 -265q108 0 156.5 61.5t48.5 197.5v622h250v-594zM678 1550l-33 -336h-123l-33 336h189zM913 1507q59 0 101.5 -41t42.5 -100q0 -58 -43 -100.5t-101 -42.5t-99.5 42t-41.5 101
q0 60 41 100.5t100 40.5zM260 1507q60 0 100.5 -40.5t40.5 -100.5q0 -59 -41.5 -101t-99.5 -42q-60 0 -101.5 41.5t-41.5 101.5t41.5 100.5t101.5 40.5z" />
    <glyph glyph-name="alpha" unicode="&#x3b1;" horiz-adv-x="1217" 
d="M1153 59q-36 -79 -158 -79q-96 0 -164 116q-103 -116 -301 -116q-209 0 -333.5 145.5t-124.5 404.5q0 241 139 401.5t373 160.5q176 0 268 -105q63 105 149 105q110 0 148 -76q-107 -49 -107 -254v-434q0 -218 111 -269zM797 287v532q-82 66 -185 66q-129 0 -207.5 -100
t-78.5 -255q0 -110 38 -193t96 -117t130 -34q111 0 207 101z" />
    <glyph glyph-name="beta" unicode="&#x3b2;" 
d="M797 836q160 -42 245.5 -146.5t85.5 -247.5q0 -194 -142.5 -328t-350.5 -134q-191 0 -297 83l-55 -83h-142v1030q0 230 123.5 369t335.5 139q185 0 304.5 -99.5t119.5 -257.5q0 -113 -60 -199.5t-167 -125.5zM387 920h148q114 0 180.5 60t66.5 163q0 76 -50 126t-138 50
q-207 0 -207 -291v-108zM387 270q56 -90 209 -90q132 0 205 66t73 182q0 139 -94 220t-262 81h-131v-459z" />
    <glyph glyph-name="gamma" unicode="&#x3b3;" horiz-adv-x="1161" 
d="M1151 1071l-432 -1048v-443h-254v432q-94 309 -181 529.5t-131 274.5t-102 54h-12v209h20q112 0 187.5 -29.5t125.5 -102t116.5 -252t119.5 -382.5l279 758h264z" />
    <glyph glyph-name="delta" unicode="&#x3b4;" horiz-adv-x="1171" 
d="M666 1311q38 -22 191 -211t198 -311.5t45 -247.5q0 -251 -137 -406t-379 -155q-244 0 -378 151t-134 408q0 151 59.5 275.5t166 194.5t228.5 70q38 0 80 -10l-293 361v79h736v-200q-352 0 -381 8zM586 184q123 0 188.5 98t65.5 259q0 112 -26.5 192.5t-86.5 147.5
q-23 24 -123 24q-131 0 -201.5 -101t-70.5 -263q0 -357 254 -357z" />
    <glyph glyph-name="epsilon" unicode="&#x3b5;" horiz-adv-x="1040" 
d="M985 94q-200 -117 -459 -117q-184 0 -300.5 81.5t-116.5 226.5q0 80 52 151t148 111q-85 22 -132.5 85.5t-47.5 147.5q0 113 109 213.5t317 100.5q186 0 383 -74l-70 -201q-159 72 -321 72q-71 0 -115.5 -32.5t-44.5 -86.5q0 -57 49.5 -93t151.5 -36q87 0 172 6v-192
q-102 6 -185 6q-96 0 -151 -43t-55 -111q0 -62 51 -96.5t147 -34.5q180 0 320 107z" />
    <glyph glyph-name="zeta" unicode="&#x3b6;" horiz-adv-x="954" 
d="M967 1430q-281 -306 -454 -559t-173 -465q0 -95 52.5 -147t240.5 -70q184 -17 259 -98.5t75 -194.5q0 -137 -103.5 -226.5t-259.5 -89.5q-82 0 -147 14l28 183q50 -15 111 -15q58 0 93.5 29.5t35.5 77.5q0 67 -47.5 93t-202.5 34q-194 8 -298.5 105t-104.5 272
q0 449 538 938l-2 6q-29 -8 -381 -8v200h740v-79z" />
    <glyph glyph-name="eta" unicode="&#x3b7;" horiz-adv-x="1210" 
d="M821 -336v954q0 141 -52.5 203t-164.5 62q-48 0 -109 -29t-102 -86v-768h-250v1071h181l47 -106q108 127 295 127q183 0 294 -114.5t111 -320.5v-933z" />
    <glyph glyph-name="theta" unicode="&#x3b8;" horiz-adv-x="1182" 
d="M92 735q0 383 129.5 582t374.5 199q233 0 363.5 -196.5t130.5 -563.5q0 -383 -128.5 -579.5t-375.5 -196.5q-236 0 -365 194t-129 561zM346 872h490q-26 441 -250 441q-215 0 -240 -441zM342 674q17 -492 254 -492q230 0 244 492h-498z" />
    <glyph glyph-name="iota" unicode="&#x3b9;" horiz-adv-x="594" 
d="M547 96q-63 -114 -211 -114q-182 0 -182 241v848h252v-733q0 -106 32 -162.5t109 -79.5z" />
    <glyph glyph-name="kappa" unicode="&#x3ba;" horiz-adv-x="1176" 
d="M844 0l-301 453l-150 -164v-289h-250v1071h250v-481l406 481h301l-398 -442l455 -629h-313z" />
    <glyph glyph-name="lambda" unicode="&#x3bb;" horiz-adv-x="1145" 
d="M1124 0h-276l-240 793l-305 -793h-278l471 1098q-23 80 -47 128q-39 78 -127 78q-62 0 -134 -35l-67 209q122 39 231 39q189 0 285 -142q53 -78 92 -195z" />
    <glyph glyph-name="nu" unicode="&#x3bd;" horiz-adv-x="1092" 
d="M582 -20h-90l-482 1091h281l258 -672l266 672h266z" />
    <glyph glyph-name="xi" unicode="&#x3be;" horiz-adv-x="987" 
d="M862 719h-192q-122 0 -227 -83.5t-105 -215.5q0 -88 52 -149t231 -81q118 -12 174.5 -32t99.5 -59t64.5 -90.5t21.5 -112.5q0 -136 -103.5 -226t-259.5 -90q-82 0 -147 14l29 183q50 -15 110 -15q57 0 93 30t36 77q0 61 -44 89.5t-220 37.5q-183 8 -293 113t-110 280
q0 139 87 250.5t240 173.5q-124 23 -197 109.5t-73 205.5q0 173 130.5 281.5t340.5 108.5q164 0 340 -64l-70 -203q-139 64 -282 64q-91 0 -145 -51t-54 -134q0 -66 34.5 -111t102.5 -68.5t171 -24.5l165 -2v-205z" />
    <glyph glyph-name="omicron" unicode="&#x3bf;" horiz-adv-x="1171" 
d="M72 539q0 170 69 297.5t183.5 191.5t261.5 64q244 0 379 -150t135 -403q0 -263 -140.5 -411t-373.5 -148q-242 0 -378 151.5t-136 407.5zM332 539q0 -355 254 -355q115 0 184.5 90.5t69.5 264.5q0 348 -254 348q-116 0 -185 -91t-69 -257z" />
    <glyph glyph-name="rho" unicode="&#x3c1;" horiz-adv-x="1210" 
d="M129 -420v909q0 271 132.5 437t371.5 166q233 0 369.5 -152.5t136.5 -394.5q0 -246 -140.5 -405.5t-384.5 -159.5q-127 0 -235 55v-455h-250zM381 254q41 -30 103.5 -48t111.5 -18q138 0 210.5 90t72.5 263q0 168 -72 257t-182 89q-109 0 -176.5 -91t-67.5 -264v-278z
" />
    <glyph glyph-name="sigma1" unicode="&#x3c2;" horiz-adv-x="981" 
d="M842 803q-98 80 -238 80q-119 0 -195.5 -97.5t-76.5 -253.5q0 -123 72 -203t202 -108q206 -44 287.5 -118.5t81.5 -206.5q0 -137 -102 -226.5t-259 -89.5q-82 0 -147 14l29 183q46 -15 108 -15q61 0 96 27.5t35 75.5q0 114 -147 139q-187 28 -288 83.5t-164.5 168
t-63.5 256.5q0 247 140.5 413.5t416.5 166.5q184 0 319 -103z" />
    <glyph glyph-name="sigma" unicode="&#x3c3;" horiz-adv-x="1223" 
d="M1169 862l-268 4q201 -179 201 -383q0 -140 -63 -257t-179.5 -181.5t-271.5 -64.5q-240 0 -378 145.5t-138 384.5q0 253 154.5 407t408.5 154h534v-209zM842 487q0 103 -57 206t-154 173q-145 0 -222 -90t-77 -252q0 -153 70 -246.5t196 -93.5q118 0 181 84.5t63 218.5z
" />
    <glyph glyph-name="tau" unicode="&#x3c4;" horiz-adv-x="965" 
d="M918 860h-361v-534q0 -136 100 -136q53 0 115 25v-215q-91 -18 -168 -18q-143 0 -221 82.5t-78 234.5v561h-266v211h879v-211z" />
    <glyph glyph-name="upsilon" unicode="&#x3c5;" horiz-adv-x="1184" 
d="M1049 477q0 -241 -117 -368t-342 -127q-455 0 -455 491v598h250v-616q0 -265 209 -265q108 0 156.5 61.5t48.5 197.5v622h250v-594z" />
    <glyph glyph-name="phi" unicode="&#x3c6;" horiz-adv-x="1540" 
d="M649 178v477q0 239 97 339t243 100q212 0 345.5 -158.5t133.5 -386.5q0 -238 -151.5 -392.5t-427.5 -174.5v-402h-242v402q-279 14 -427 161.5t-148 386.5q0 179 86 327t248 239l118 -156q-205 -147 -205 -391q0 -158 88 -258t242 -113zM887 176q155 12 244.5 106.5
t89.5 243.5q0 164 -65.5 268.5t-154.5 104.5q-49 0 -81.5 -34t-32.5 -148v-541z" />
    <glyph glyph-name="chi" unicode="&#x3c7;" horiz-adv-x="1141" 
d="M817 0l-252 369l-258 -369h-291l422 545l-393 526h289l237 -340l238 340h281l-392 -514l424 -557h-305z" />
    <glyph glyph-name="psi" unicode="&#x3c8;" horiz-adv-x="1583" 
d="M1452 563q0 -536 -537 -581v-402h-241v402q-543 38 -543 573v516h244v-526q0 -160 76 -255t225 -110v891h237v-893q299 34 299 361v532h240v-508z" />
    <glyph glyph-name="omega" unicode="&#x3c9;" horiz-adv-x="1604" 
d="M1202 1100q159 -107 241.5 -265.5t82.5 -349.5q0 -236 -111.5 -370.5t-314.5 -134.5q-199 0 -299 149q-108 -149 -303 -149q-200 0 -310 131.5t-110 363.5q0 378 323 625l154 -168q-223 -173 -223 -440q0 -147 49 -226.5t135 -79.5q71 0 119.5 55t48.5 72v193
q0 160 -8 268h252q-6 -134 -6 -262v-186q59 -140 182 -140q168 0 168 299q0 270 -223 447z" />
    <glyph glyph-name="iotadieresis" unicode="&#x3ca;" horiz-adv-x="594" 
d="M547 96q-63 -114 -211 -114q-182 0 -182 241v848h252v-733q0 -106 32 -162.5t109 -79.5zM547 1507q59 0 101 -41t42 -100q0 -58 -42.5 -100.5t-100.5 -42.5q-59 0 -100 42t-41 101q0 60 40.5 100.5t100.5 40.5zM8 1507q60 0 101 -40.5t41 -100.5q0 -59 -42 -101t-100 -42
q-59 0 -101 41.5t-42 101.5t41.5 100.5t101.5 40.5z" />
    <glyph glyph-name="upsilondieresis" unicode="&#x3cb;" horiz-adv-x="1184" 
d="M1049 477q0 -241 -117 -368t-342 -127q-455 0 -455 491v598h250v-616q0 -265 209 -265q108 0 156.5 61.5t48.5 197.5v622h250v-594zM868 1507q59 0 101.5 -41t42.5 -100q0 -58 -42.5 -100.5t-101.5 -42.5q-58 0 -99.5 42t-41.5 101q0 60 40.5 100.5t100.5 40.5zM324 1507
q59 0 100 -40.5t41 -100.5q0 -58 -42 -100.5t-99 -42.5q-60 0 -102 41.5t-42 101.5q0 61 41.5 101t102.5 40z" />
    <glyph glyph-name="omicrontonos" unicode="&#x3cc;" horiz-adv-x="1171" 
d="M72 539q0 170 69 297.5t183.5 191.5t261.5 64q244 0 379 -150t135 -403q0 -263 -140.5 -411t-373.5 -148q-242 0 -378 151.5t-136 407.5zM332 539q0 -355 254 -355q115 0 184.5 90.5t69.5 264.5q0 348 -254 348q-116 0 -185 -91t-69 -257zM850 1610l-176 -330h-191
l109 330h258z" />
    <glyph glyph-name="upsilontonos" unicode="&#x3cd;" horiz-adv-x="1184" 
d="M1049 477q0 -241 -117 -368t-342 -127q-455 0 -455 491v598h250v-616q0 -265 209 -265q108 0 156.5 61.5t48.5 197.5v622h250v-594zM860 1610l-176 -330h-190l108 330h258z" />
    <glyph glyph-name="omegatonos" unicode="&#x3ce;" horiz-adv-x="1604" 
d="M1202 1100q159 -107 241.5 -265.5t82.5 -349.5q0 -235 -112 -370t-314 -135q-199 0 -299 149q-108 -149 -303 -149q-200 0 -310 131.5t-110 363.5q0 378 323 625l154 -168q-223 -173 -223 -440q0 -147 49 -226.5t135 -79.5q71 0 119.5 55t48.5 72v193q0 160 -8 268h252
q-6 -134 -6 -262v-186q59 -140 182 -140q168 0 168 299q0 270 -223 447zM1079 1610l-176 -330h-190l108 330h258z" />
    <glyph glyph-name="afii10023" unicode="&#x401;" horiz-adv-x="1180" 
d="M410 1235v-344h485v-221h-485v-439h663v-231h-923v1464h935v-229h-675zM858 1866q56 0 95.5 -40.5t39.5 -96.5q0 -58 -39.5 -99t-95.5 -41t-96.5 41.5t-40.5 98.5q0 58 39.5 97.5t97.5 39.5zM408 1866q56 0 96.5 -40.5t40.5 -96.5q0 -57 -40.5 -98.5t-96.5 -41.5t-96 41
t-40 99t39 97.5t97 39.5z" />
    <glyph glyph-name="afii10051" unicode="&#x402;" horiz-adv-x="1546" 
d="M1460 416q0 -202 -121.5 -314t-298.5 -112q-43 0 -118 8v215q51 -8 88 -8q186 0 186 196v31q0 126 -75 194t-208 68q-82 0 -204 -22v-672h-260v1239h-400v225h1118v-225h-458v-358q127 22 237 22q240 0 377 -117.5t137 -330.5v-39z" />
    <glyph glyph-name="afii10052" unicode="&#x403;" horiz-adv-x="1126" 
d="M1061 1235h-649v-1235h-262v1464h911v-229zM928 1919l-223 -330h-199l168 330h254z" />
    <glyph glyph-name="afii10053" unicode="&#x404;" horiz-adv-x="1253" 
d="M1210 131q-197 -156 -487 -156q-303 0 -473 204.5t-170 547.5q0 332 185 548t501 216q203 0 399 -96l-116 -226q-130 97 -291 97q-163 0 -270 -102t-134 -292h537v-215h-553q9 -207 118 -330.5t283 -123.5q199 0 340 135z" />
    <glyph glyph-name="afii10054" unicode="&#x405;" horiz-adv-x="1051" 
d="M84 82l96 231q152 -106 303 -106q230 0 230 160q0 67 -49.5 135.5t-227.5 159.5q-168 85 -226 137.5t-90 127t-32 169.5q0 171 124 283t318 112q255 0 373 -96l-78 -224q-138 99 -288 99q-91 0 -141 -50t-50 -122q0 -124 281 -262q201 -97 272.5 -201.5t71.5 -251.5
q0 -179 -140.5 -293.5t-375.5 -114.5q-207 0 -371 107z" />
    <glyph glyph-name="afii10055" unicode="&#x406;" horiz-adv-x="569" 
d="M156 0v1464h260v-1464h-260z" />
    <glyph glyph-name="afii10056" unicode="&#x407;" horiz-adv-x="569" 
d="M156 0v1464h260v-1464h-260zM518 1866q56 0 95.5 -40.5t39.5 -96.5q0 -58 -39 -99t-96 -41q-56 0 -96.5 41.5t-40.5 98.5q0 58 39.5 97.5t97.5 39.5zM68 1866q56 0 96.5 -40.5t40.5 -96.5q0 -58 -40.5 -99t-96.5 -41t-96 41t-40 99t38.5 97.5t97.5 39.5z" />
    <glyph glyph-name="afii10057" unicode="&#x408;" horiz-adv-x="1118" 
d="M43 340h233q31 -129 213 -129q129 0 181.5 85t52.5 251v917h260v-909q0 -301 -128.5 -438t-393.5 -137q-178 0 -291.5 93.5t-126.5 266.5z" />
    <glyph glyph-name="afii10058" unicode="&#x409;" horiz-adv-x="2060" 
d="M1270 915q104 11 174 11q254 0 394 -121t140 -346q0 -209 -142 -334t-396 -125h-422v1243h-285q-37 -372 -117.5 -672t-207 -442.5t-375.5 -142.5v239q70 0 118.5 18.5t100.5 84.5t110.5 244t102 419.5t67.5 472.5h738v-549zM1270 215q105 -6 131 -6q181 0 250 71t69 193
q0 114 -74.5 180t-234.5 66q-48 0 -141 -10v-494z" />
    <glyph glyph-name="afii10059" unicode="&#x40a;" horiz-adv-x="1944" 
d="M1153 915q105 11 174 11q254 0 394.5 -121t140.5 -346q0 -203 -138.5 -331t-400.5 -128h-422v659h-500v-659h-251v1464h251v-573h500v573h252v-549zM1153 215q105 -6 131 -6q182 0 251 71t69 193q0 114 -75 180t-235 66q-48 0 -141 -10v-494z" />
    <glyph glyph-name="afii10060" unicode="&#x40b;" horiz-adv-x="1573" 
d="M1442 0h-264v426q0 133 -74 200.5t-203 67.5q-93 0 -192 -22v-672h-260v1239h-400v225h1110v-225h-450v-358q125 22 229 22q238 0 371 -119t133 -338v-446z" />
    <glyph glyph-name="afii10061" unicode="&#x40c;" horiz-adv-x="1311" 
d="M1221 -6q-29 -6 -86 -6q-137 0 -207 66t-97 216q-37 210 -134.5 302t-276.5 92h-12v-664h-258v1464h258v-579h20q174 0 271 76.5t126 236.5q27 146 88 211.5t197 65.5q55 0 92 -5v-231q-10 2 -43 2q-45 0 -63.5 -21t-34.5 -98q-27 -129 -116 -222t-224 -124
q143 -42 229 -141.5t121 -278.5q19 -90 39.5 -111.5t71.5 -21.5q21 0 39 4v-233zM975 1919l-223 -330h-199l168 330h254z" />
    <glyph glyph-name="afii10062" unicode="&#x40e;" horiz-adv-x="1272" 
d="M1260 1464q-124 -448 -311.5 -824t-360 -515t-455.5 -139v239q12 -2 47 -2q128 0 211 46t148 139l-525 1056h289l385 -852q178 362 303 852h269zM1040 1892q-30 -151 -128.5 -229t-245.5 -78t-244 78t-127 229l209 43q23 -180 166 -180q151 0 166 178z" />
    <glyph glyph-name="afii10145" unicode="&#x40f;" horiz-adv-x="1300" 
d="M1210 0h-413v-420h-234v420h-413v1464h258v-1237h544v1237h258v-1464z" />
    <glyph glyph-name="afii10017" unicode="&#x410;" horiz-adv-x="1305" 
d="M1010 0l-109 297h-502l-100 -297h-291l586 1485h113l589 -1485h-286zM649 1036l-176 -540h352z" />
    <glyph glyph-name="afii10018" unicode="&#x411;" horiz-adv-x="1225" 
d="M408 891q108 10 190 10q256 0 398.5 -118t142.5 -339q0 -203 -142.5 -323.5t-398.5 -120.5h-448v1464h884v-225h-626v-348zM408 217q81 -6 141 -6q172 0 246.5 64t74.5 184q0 105 -68 169t-245 64q-70 0 -149 -8v-467z" />
    <glyph glyph-name="afii10019" unicode="&#x412;" horiz-adv-x="1223" 
d="M598 0h-448v1464q345 15 415 15q227 0 356.5 -98t129.5 -279q0 -176 -185 -275q273 -94 273 -393q0 -200 -151 -317t-390 -117zM410 1255v-350q78 -4 127 -4q254 0 254 191q0 170 -232 170q-60 0 -149 -7zM410 702v-485q79 -6 129 -6q163 0 246 55.5t83 200.5
q0 123 -71.5 180.5t-255.5 57.5q-70 0 -131 -3z" />
    <glyph glyph-name="afii10020" unicode="&#x413;" horiz-adv-x="1126" 
d="M1061 1235h-649v-1235h-262v1464h911v-229z" />
    <glyph glyph-name="afii10021" unicode="&#x414;" horiz-adv-x="1493" 
d="M1448 -420h-229v420h-959v-420h-229v635h100q120 155 243 432.5t230 816.5h680v-1249h164v-635zM1034 215v1036h-250q-51 -311 -153 -592t-223 -444h626z" />
    <glyph glyph-name="afii10022" unicode="&#x415;" horiz-adv-x="1180" 
d="M410 1235v-344h485v-221h-485v-439h663v-231h-923v1464h935v-229h-675z" />
    <glyph glyph-name="afii10024" unicode="&#x416;" horiz-adv-x="1911" 
d="M1819 -6q-27 -6 -84 -6q-125 0 -191 68t-90 216q-63 394 -371 394v-666h-247v666q-322 0 -383 -390q-24 -150 -89.5 -219t-187.5 -69q-57 0 -84 6v231q15 -4 37 -4q47 0 68 22t36 111q26 150 111 259.5t217 158.5q-263 43 -319 344q-13 68 -30 97.5t-62 29.5
q-34 0 -41 -2v229q34 5 90 5q123 0 181.5 -66t82.5 -209q53 -317 373 -317v581h247v-581q153 0 247.5 80t119.5 233q24 145 81.5 212t180.5 67q56 0 90 -5v-229q-8 2 -39 2q-41 0 -61 -23.5t-35 -99.5q-25 -129 -107 -222t-204 -122q263 -89 321 -418q16 -89 38 -113t69 -24
q20 0 35 4v-231z" />
    <glyph glyph-name="afii10025" unicode="&#x417;" horiz-adv-x="1141" 
d="M793 801q127 -46 194.5 -142t67.5 -229q0 -212 -149.5 -333.5t-409.5 -121.5q-261 0 -445 113l113 227q157 -116 344 -116q132 0 206 62t74 167q0 130 -86.5 197t-248.5 67q-88 0 -150 -6v213q78 -8 156 -8q133 0 205.5 53.5t72.5 153.5q0 84 -64.5 128t-166.5 44
q-136 0 -301 -88l-90 215q221 94 411 94q219 0 346 -99.5t127 -277.5q0 -109 -55.5 -193t-150.5 -120z" />
    <glyph glyph-name="afii10026" unicode="&#x418;" horiz-adv-x="1438" 
d="M1286 0h-260v985l-766 -1008h-110v1487h260v-985l766 1008h110v-1487z" />
    <glyph glyph-name="afii10027" unicode="&#x419;" horiz-adv-x="1473" 
d="M1286 0h-260v985l-766 -1008h-110v1487h260v-985l766 1008h110v-1487zM1120 1892q-30 -151 -128.5 -229t-246.5 -78q-146 0 -243 78t-127 229l209 43q23 -180 166 -180q150 0 165 178z" />
    <glyph glyph-name="afii10028" unicode="&#x41a;" horiz-adv-x="1311" 
d="M1221 -6q-29 -6 -86 -6q-137 0 -207 66t-97 216q-37 210 -134.5 302t-276.5 92h-12v-664h-258v1464h258v-579h20q174 0 271 76.5t126 236.5q27 146 88 211.5t197 65.5q55 0 92 -5v-231q-10 2 -43 2q-45 0 -63.5 -21t-34.5 -98q-27 -129 -116 -222t-224 -124
q143 -42 229 -141.5t121 -278.5q19 -90 39.5 -111.5t71.5 -21.5q21 0 39 4v-233z" />
    <glyph glyph-name="afii10029" unicode="&#x41b;" horiz-adv-x="1430" 
d="M1278 0h-256v1243h-283q-30 -298 -92.5 -567.5t-149.5 -423t-197.5 -210t-266.5 -56.5v239q70 0 119 18.5t101.5 83.5t111.5 244t103.5 421t68.5 472h741v-1464z" />
    <glyph glyph-name="afii10030" unicode="&#x41c;" horiz-adv-x="1593" 
d="M1544 0h-252l-151 788l-295 -808h-92l-297 808l-158 -788h-250l295 1464h137l318 -987l309 987h137z" />
    <glyph glyph-name="afii10031" unicode="&#x41d;" horiz-adv-x="1401" 
d="M993 0v659h-583v-659h-260v1464h260v-573h583v573h256v-1464h-256z" />
    <glyph glyph-name="afii10032" unicode="&#x41e;" horiz-adv-x="1440" 
d="M80 745q0 312 171.5 529t459.5 217q313 0 481 -194.5t168 -551.5q0 -358 -175 -564t-495 -206q-298 0 -454 207.5t-156 562.5zM350 745q0 -267 88 -402.5t252 -135.5q195 0 297.5 136t102.5 402q0 515 -379 515q-176 0 -268.5 -139t-92.5 -376z" />
    <glyph glyph-name="afii10033" unicode="&#x41f;" horiz-adv-x="1362" 
d="M1210 0h-260v1235h-540v-1235h-260v1464h1060v-1464z" />
    <glyph glyph-name="afii10034" unicode="&#x420;" horiz-adv-x="1206" 
d="M410 539v-539h-260v1464q287 11 305 11q342 0 504.5 -106t162.5 -333q0 -504 -594 -504q-45 0 -118 7zM410 1239v-469q67 -6 104 -6q178 0 260 58.5t82 193.5q0 227 -367 227q-55 0 -79 -4z" />
    <glyph glyph-name="afii10035" unicode="&#x421;" horiz-adv-x="1253" 
d="M1153 1386l-106 -215q-88 89 -279 89q-192 0 -305 -159t-113 -384t105 -367.5t293 -142.5q207 0 323 147l123 -211q-160 -168 -467 -168q-309 0 -478 202.5t-169 549.5q0 322 186.5 543t485.5 221q248 0 401 -105z" />
    <glyph glyph-name="afii10036" unicode="&#x422;" horiz-adv-x="1331" 
d="M784 1235v-1235h-260v1235h-465v229h1213v-229h-488z" />
    <glyph glyph-name="afii10037" unicode="&#x423;" horiz-adv-x="1272" 
d="M1260 1464q-124 -448 -311.5 -824t-360 -515t-455.5 -139v239q12 -2 47 -2q128 0 211 46t148 139l-525 1056h289l385 -852q178 362 303 852h269z" />
    <glyph glyph-name="afii10038" unicode="&#x424;" horiz-adv-x="1618" 
d="M936 1356q283 -23 440.5 -184t157.5 -424q0 -258 -160.5 -430.5t-437.5 -192.5v-158h-252v158q-283 23 -441.5 184.5t-158.5 425.5q0 257 161 428.5t439 192.5v157h252v-157zM932 317q175 21 267.5 131.5t92.5 296.5q0 175 -94 285.5t-266 132.5v-846zM688 317v846
q-176 -20 -269 -130t-93 -296q0 -174 95 -285.5t267 -134.5z" />
    <glyph glyph-name="afii10039" unicode="&#x425;" horiz-adv-x="1253" 
d="M954 0l-346 526l-319 -526h-273l441 760l-404 706l264 -2l297 -493l328 493h272l-464 -708l487 -756h-283z" />
    <glyph glyph-name="afii10040" unicode="&#x426;" horiz-adv-x="1393" 
d="M1348 -420h-234v420h-964v1464h258v-1237h516v1237h256v-1237h168v-647z" />
    <glyph glyph-name="afii10041" unicode="&#x427;" horiz-adv-x="1296" 
d="M1145 0h-260v582q-130 -29 -258 -29q-238 0 -371 119.5t-133 339.5v452h270v-436q0 -128 69.5 -195t199.5 -67q107 0 223 29v669h260v-1464z" />
    <glyph glyph-name="afii10042" unicode="&#x428;" horiz-adv-x="1905" 
d="M1753 0h-1603v1464h247v-1247h432v1247h248v-1247h432v1247h244v-1464z" />
    <glyph glyph-name="afii10043" unicode="&#x429;" horiz-adv-x="1962" 
d="M1917 -420h-231v420h-1536v1464h247v-1247h432v1247h248v-1247h432v1247h244v-1241h164v-643z" />
    <glyph glyph-name="afii10044" unicode="&#x42a;" horiz-adv-x="1589" 
d="M778 913q98 13 199 13q253 0 391.5 -120.5t138.5 -346.5q0 -209 -141.5 -334t-394.5 -125h-449v1237h-469v227h725v-551zM778 217q110 -6 135 -6q191 0 260.5 68.5t69.5 193.5q0 244 -317 244q-52 0 -148 -10v-490z" />
    <glyph glyph-name="afii10045" unicode="&#x42b;" horiz-adv-x="1718" 
d="M403 913q122 13 185 13q254 0 394 -121t140 -346q0 -209 -142 -334t-396 -125h-434v1464h253v-551zM403 217q110 -6 134 -6q189 0 257 74t68 188q0 112 -77 178t-238 66q-50 0 -144 -10v-490zM1567 0h-256v1464h256v-1464z" />
    <glyph glyph-name="afii10046" unicode="&#x42c;" horiz-adv-x="1241" 
d="M410 915q128 13 208 13q255 0 398 -123t143 -348q0 -208 -143 -332.5t-398 -124.5h-468v1464h260v-549zM410 217q84 -6 151 -6q330 0 330 260q0 115 -81 180.5t-235 65.5q-56 0 -165 -10v-490z" />
    <glyph glyph-name="afii10047" unicode="&#x42d;" horiz-adv-x="1264" 
d="M96 1374q200 117 461 117q298 0 462.5 -202t164.5 -552q0 -349 -182 -555.5t-498 -206.5q-257 0 -451 131l113 226q159 -129 336 -129q189 0 297 116t123 338h-551v215h544q-21 186 -119 290t-253 104q-183 0 -336 -107z" />
    <glyph glyph-name="afii10048" unicode="&#x42e;" horiz-adv-x="1929" 
d="M647 889q44 280 200.5 439t391.5 159q296 0 451 -205.5t155 -540.5q0 -348 -164.5 -559t-461.5 -211q-272 0 -419 187.5t-161 503.5h-236v-662h-253v1464h253v-575h244zM1225 197q181 0 269.5 149.5t88.5 394.5q0 521 -350 521q-169 0 -256.5 -152t-87.5 -369
q0 -265 87.5 -404.5t248.5 -139.5z" />
    <glyph glyph-name="afii10049" unicode="&#x42f;" horiz-adv-x="1311" 
d="M1159 0h-258v608h-61q-170 0 -264 -83.5t-130 -262.5q-29 -146 -95 -210t-187 -64q-61 0 -88 6v231q18 -4 39 -4q49 0 69.5 30.5t34.5 96.5q52 250 287 346q-192 45 -264 136.5t-72 220.5q0 181 141 305.5t424 124.5q188 0 424 -19v-1462zM903 817v443q-80 10 -192 10
q-124 0 -203.5 -55t-79.5 -160q0 -231 332 -236z" />
    <glyph glyph-name="afii10065" unicode="&#x430;" horiz-adv-x="1094" 
d="M733 106q-34 -55 -122 -90.5t-173 -35.5q-176 0 -273 87t-97 244q0 177 134 287.5t400 110.5q43 0 105 -17q0 191 -238 191q-140 0 -238 -47l-53 192q127 64 307 64q248 0 360.5 -114.5t112.5 -420.5v-229q0 -214 86 -269q-29 -52 -65 -65.5t-90 -13.5q-53 0 -96 38.5
t-60 87.5zM709 504q-65 12 -97 12q-295 0 -295 -192q0 -146 166 -146q226 0 226 225v101z" />
    <glyph glyph-name="afii10066" unicode="&#x431;" horiz-adv-x="1194" 
d="M285 823q72 97 170.5 151t195.5 54q220 0 348.5 -136t128.5 -366q0 -238 -135.5 -392t-380.5 -154q-247 0 -387.5 172t-140.5 469q0 192 34 337.5t105 245.5t182 162.5t280 95.5l347 68l53 -221q-402 -76 -471.5 -91t-144.5 -57.5t-121 -122.5t-63 -215zM623 180
q123 0 190.5 89.5t67.5 238.5q0 156 -68.5 241t-189.5 85q-125 0 -203 -91.5t-78 -228.5q0 -146 80 -240t201 -94z" />
    <glyph glyph-name="afii10067" unicode="&#x432;" horiz-adv-x="1116" 
d="M827 571q209 -75 209 -270q0 -138 -106 -219.5t-316 -81.5h-479v1069q301 14 467 14q185 0 286 -80.5t101 -214.5q0 -68 -42.5 -127.5t-119.5 -89.5zM377 653q39 -2 209 -2q164 0 164 125q0 54 -40.5 86.5t-111.5 32.5q-132 0 -221 -8v-234zM377 195q130 -5 219 -5
q195 0 195 142q0 71 -56 106t-139 35l-219 -2v-276z" />
    <glyph glyph-name="afii10068" unicode="&#x433;" horiz-adv-x="946" 
d="M879 860h-492v-860h-252v1071h744v-211z" />
    <glyph glyph-name="afii10069" unicode="&#x434;" horiz-adv-x="1280" 
d="M1227 -373h-215v373h-752v-373h-215v570h102q108 144 166 341t58 396v137h708v-874h148v-570zM848 197v680h-270q-20 -430 -191 -680h461z" />
    <glyph glyph-name="afii10070" unicode="&#x435;" horiz-adv-x="1184" 
d="M1096 459h-766q6 -128 88.5 -199.5t218.5 -71.5q169 0 260 91l96 -193q-135 -106 -393 -106q-244 0 -387 141t-143 403q0 255 157 411.5t375 156.5q230 0 372 -138.5t142 -355.5q0 -51 -20 -139zM340 647h524q-25 236 -260 236q-211 0 -264 -236z" />
    <glyph glyph-name="afii10072" unicode="&#x436;" horiz-adv-x="1595" 
d="M1518 -6q-50 -6 -103 -6q-178 0 -205 192q-37 285 -295 285v-465h-225v465q-270 0 -309 -281q-27 -196 -207 -196q-47 0 -96 6v205q12 -4 43 -4q47 0 59 65q42 231 269 303q-214 38 -254 250q-11 66 -60 66q-15 0 -41 -5v203q74 6 103 6q170 0 194 -180
q17 -122 89 -179.5t210 -57.5v405h225v-405q254 0 287 233q25 184 197 184q23 0 102 -6v-203q-26 5 -49 5q-39 0 -53 -66q-43 -200 -252 -248q223 -59 270 -311q12 -59 56 -59q32 0 45 4v-205z" />
    <glyph glyph-name="afii10073" unicode="&#x437;" horiz-adv-x="989" 
d="M705 559q92 -29 147 -95.5t55 -144.5q0 -167 -121.5 -254.5t-332.5 -87.5q-246 0 -410 119l123 197q128 -109 303 -109q180 0 180 133q0 144 -213 144q-80 0 -143 -6v196q37 -2 162 -2q170 0 170 119q0 55 -41 88t-117 33q-142 0 -279 -82l-90 197q194 90 387 90
q177 0 284.5 -86t107.5 -215q0 -173 -172 -234z" />
    <glyph glyph-name="afii10074" unicode="&#x438;" horiz-adv-x="1231" 
d="M1096 0h-250v647l-643 -672h-68v1096h250v-647l643 672h68v-1096z" />
    <glyph glyph-name="afii10075" unicode="&#x439;" horiz-adv-x="1231" 
d="M1096 0h-250v647l-643 -672h-68v1096h250v-647l643 672h68v-1096zM1010 1589q-28 -149 -129 -228t-244 -79q-147 0 -244 78t-127 229l209 43q23 -180 168 -180q149 0 164 178z" />
    <glyph glyph-name="afii10076" unicode="&#x43a;" horiz-adv-x="1118" 
d="M1044 -6q-53 -6 -116 -6q-188 0 -217 192q-41 281 -322 281h-6v-461h-248v1071h248v-403h12q272 0 307 231q28 184 211 184q28 0 113 -6v-203q-26 5 -47 5q-40 0 -55 -62q-48 -204 -273 -252q242 -65 291 -311q12 -59 53 -59q37 0 49 4v-205z" />
    <glyph glyph-name="afii10077" unicode="&#x43b;" horiz-adv-x="1227" 
d="M1092 0h-244v874h-264q-8 -224 -50.5 -417t-116.5 -297.5t-158.5 -138t-213.5 -33.5v221q100 0 166 68.5t112 269t46 457.5v67h723v-1071z" />
    <glyph glyph-name="afii10078" unicode="&#x43c;" horiz-adv-x="1475" 
d="M1419 0h-256q-81 454 -85.5 507t-4.5 73h-10q-21 -70 -37 -101l-252 -499h-88l-186 365q-74 146 -86 178t-19 57h-10q0 -67 -19 -179l-67 -401h-244l203 1092h96l389 -764l383 764h91z" />
    <glyph glyph-name="afii10079" unicode="&#x43d;" horiz-adv-x="1214" 
d="M1079 0h-250v459h-444v-459h-250v1071h250v-405h444v405h250v-1071z" />
    <glyph glyph-name="afii10080" unicode="&#x43e;" horiz-adv-x="1167" 
d="M70 539q0 243 140.5 398t373.5 155q244 0 379 -150t135 -403q0 -263 -140.5 -411t-373.5 -148q-242 0 -378 151.5t-136 407.5zM330 539q0 -355 254 -355q115 0 184.5 90.5t69.5 264.5q0 348 -254 348q-116 0 -185 -91t-69 -257z" />
    <glyph glyph-name="afii10081" unicode="&#x43f;" horiz-adv-x="1196" 
d="M1061 0h-250v860h-426v-860h-250v1071h926v-1071z" />
    <glyph glyph-name="afii10082" unicode="&#x440;" horiz-adv-x="1198" 
d="M385 27v-447h-250v1491h250v-72q95 93 231 93q512 0 512 -566q0 -260 -141 -403t-387 -143q-114 0 -215 47zM385 809v-563q68 -56 160 -56q169 0 246 83t77 262q0 181 -72.5 262.5t-250.5 81.5q-90 0 -160 -70z" />
    <glyph glyph-name="afii10083" unicode="&#x441;" horiz-adv-x="1057" 
d="M979 985l-107 -186q-90 84 -235 84q-141 0 -224 -93t-83 -264q0 -338 319 -338q142 0 246 93l92 -197q-114 -70 -195 -87t-188 -17q-244 0 -389 143t-145 403q0 255 155.5 410.5t427.5 155.5q189 0 326 -107z" />
    <glyph glyph-name="afii10084" unicode="&#x442;" horiz-adv-x="997" 
d="M625 860v-860h-252v860h-307v211h866v-211h-307z" />
    <glyph glyph-name="afii10085" unicode="&#x443;" horiz-adv-x="1108" 
d="M621 -172q-40 -107 -169 -177.5t-309 -70.5v221q289 0 289 146q0 95 -80 293l-336 831h260l291 -739l264 739h259z" />
    <glyph glyph-name="afii10086" unicode="&#x444;" horiz-adv-x="1632" 
d="M938 1049q83 43 170 43q214 0 328 -148t114 -407q0 -268 -119.5 -412.5t-304.5 -144.5q-101 0 -188 36v-436h-240v440q-95 -40 -194 -40q-196 0 -309 144.5t-113 403.5q0 264 121 414t321 150q89 0 174 -41v419l240 60v-481zM936 199q71 -23 131 -23q242 0 242 371
q0 172 -59 262t-171 90q-65 0 -143 -27v-673zM700 201v669q-75 29 -145 29q-231 0 -231 -352q0 -371 241 -371q64 0 135 25z" />
    <glyph glyph-name="afii10087" unicode="&#x445;" horiz-adv-x="1147" 
d="M821 0l-252 369l-258 -369h-291l422 545l-393 526h289l237 -340l238 340h281l-392 -514l424 -557h-305z" />
    <glyph glyph-name="afii10088" unicode="&#x446;" horiz-adv-x="1233" 
d="M1180 -373h-219v373h-826v1071h248v-866h401v866h248v-866h148v-578z" />
    <glyph glyph-name="afii10089" unicode="&#x447;" horiz-adv-x="1161" 
d="M1026 0h-250v403q-155 -36 -270 -36q-193 0 -295 101.5t-102 291.5v311h253v-289q0 -207 201 -207q101 0 213 27v469h250v-1071z" />
    <glyph glyph-name="afii10090" unicode="&#x448;" horiz-adv-x="1628" 
d="M1493 0h-1358v1071h242v-868h315v868h242v-868h317v868h242v-1071z" />
    <glyph glyph-name="afii10091" unicode="&#x449;" horiz-adv-x="1683" 
d="M1630 -373h-219v373h-1276v1071h242v-868h311v868h242v-868h311v868h242v-868h147v-576z" />
    <glyph glyph-name="afii10092" unicode="&#x44a;" horiz-adv-x="1333" 
d="M637 688q92 8 203 8q198 0 309 -92.5t111 -263.5q0 -157 -101 -248.5t-321 -91.5h-447v864h-321v207h567v-383zM637 197q86 -4 176 -4q124 0 160.5 49t36.5 110q0 65 -49 108.5t-146 43.5q-61 0 -178 -6v-301z" />
    <glyph glyph-name="afii10093" unicode="&#x44b;" horiz-adv-x="1528" 
d="M379 688q88 8 190 8q197 0 306.5 -92.5t109.5 -263.5q0 -340 -418 -340h-432v1071h244v-383zM379 195q83 -5 166 -5q112 0 152 45.5t40 116.5q0 66 -48.5 110t-141.5 44q-53 0 -168 -6v-305zM1393 0h-246v1071h246v-1071z" />
    <glyph glyph-name="afii10094" unicode="&#x44c;" horiz-adv-x="1106" 
d="M383 688q98 8 219 8q201 0 315.5 -93t114.5 -263q0 -156 -103 -248t-333 -92h-461v1071h248v-383zM383 197q100 -4 192 -4q205 0 205 157q0 65 -47.5 109.5t-154.5 44.5q-56 0 -195 -6v-301z" />
    <glyph glyph-name="afii10095" unicode="&#x44d;" horiz-adv-x="1073" 
d="M90 987q157 107 385 107q242 0 385.5 -149.5t143.5 -399.5q0 -266 -156 -417t-422 -151q-210 0 -358 115l116 189q112 -95 265 -95q127 0 206.5 70t94.5 201h-406v192h401q-39 238 -307 238q-138 0 -243 -82z" />
    <glyph glyph-name="afii10096" unicode="&#x44e;" horiz-adv-x="1565" 
d="M561 664q30 189 151 308.5t310 119.5q228 0 348.5 -152.5t120.5 -400.5q0 -264 -130 -411.5t-339 -147.5t-327 127t-140 354h-180v-461h-240v1071h240v-407h186zM1020 184q103 0 164 90t61 265q0 348 -225 348q-105 0 -165 -98.5t-60 -249.5q0 -355 225 -355z" />
    <glyph glyph-name="afii10097" unicode="&#x44f;" horiz-adv-x="1147" 
d="M1012 0h-246v406h-66q-281 0 -315 -242q-24 -176 -211 -176q-53 0 -102 6v205q12 -4 43 -4q45 0 57 59q18 86 78 148t149 85q-260 48 -260 279q0 136 101 226.5t331 90.5q135 0 441 -16v-1067zM766 592v295q-80 8 -195 8q-92 0 -135 -40.5t-43 -104.5q0 -68 57.5 -111.5
t157.5 -44.5z" />
    <glyph glyph-name="afii10071" unicode="&#x451;" horiz-adv-x="1184" 
d="M1094 459h-766q6 -128 88.5 -199.5t218.5 -71.5q169 0 260 91l96 -193q-135 -106 -393 -106q-244 0 -387 141t-143 403q0 255 157 411.5t375 156.5q229 0 371.5 -138.5t142.5 -355.5q0 -51 -20 -139zM338 647h524q-25 236 -260 236q-211 0 -264 -236zM844 1483
q56 0 95.5 -40.5t39.5 -96.5q0 -58 -39.5 -99t-95.5 -41t-96.5 41.5t-40.5 98.5q0 58 39.5 97.5t97.5 39.5zM393 1483q57 0 97 -40.5t40 -96.5q0 -57 -40 -98.5t-97 -41.5q-56 0 -95.5 41t-39.5 99t38.5 97.5t96.5 39.5z" />
    <glyph glyph-name="afii10099" unicode="&#x452;" horiz-adv-x="1227" 
d="M1090 72q0 -250 -127.5 -369t-391.5 -125v217q138 1 203.5 68.5t65.5 212.5v536q0 95 -61 157t-165 62q-65 0 -127.5 -34t-89.5 -76v-721h-250v1184h-151v159h151v130l250 59v-189h391v-159h-391v-236q102 88 271 88q201 0 311.5 -112.5t110.5 -319.5v-532z" />
    <glyph glyph-name="afii10100" unicode="&#x453;" horiz-adv-x="946" 
d="M879 860h-492v-860h-252v1071h744v-211zM821 1573l-223 -330h-199l168 330h254z" />
    <glyph glyph-name="afii10101" unicode="&#x454;" horiz-adv-x="1073" 
d="M1004 84q-165 -107 -400 -107q-250 0 -392 147.5t-142 401.5q0 232 144 400t431 168q192 0 336 -105l-119 -178q-101 76 -244 76q-109 0 -187.5 -63.5t-98.5 -174.5h397v-192h-407q13 -130 99 -200.5t228 -70.5q149 0 256 90z" />
    <glyph glyph-name="afii10102" unicode="&#x455;" horiz-adv-x="893" 
d="M74 70l88 198q115 -90 254 -90q145 0 145 105q0 56 -41 96.5t-174 95.5q-276 114 -276 322q0 141 106.5 218t269.5 77q168 0 314 -76l-72 -195q-84 72 -227 72q-131 0 -131 -105q0 -49 59 -85t168 -78q138 -55 201 -131t63 -195q0 -147 -110.5 -233t-300.5 -86
q-110 0 -179.5 21t-156.5 69z" />
    <glyph glyph-name="afii10103" unicode="&#x456;" horiz-adv-x="616" 
d="M336 1487q58 0 100.5 -41.5t42.5 -104.5q0 -61 -42 -103t-101 -42q-61 0 -103.5 43.5t-42.5 101.5t42 102t104 44zM217 0v866h-137v205h389v-1071h-252z" />
    <glyph glyph-name="afii10104" unicode="&#x457;" horiz-adv-x="616" 
d="M217 0v866h-137v205h389v-1071h-252zM516 1483q56 0 95.5 -40.5t39.5 -96.5q0 -58 -39 -99t-96 -41q-56 0 -96.5 41.5t-40.5 98.5q0 58 39.5 97.5t97.5 39.5zM66 1483q56 0 96.5 -40.5t40.5 -96.5q0 -57 -40.5 -98.5t-96.5 -41.5t-96 41t-40 99t39 97.5t97 39.5z" />
    <glyph glyph-name="afii10105" unicode="&#x458;" horiz-adv-x="680" 
d="M406 1487q59 0 102 -43t43 -103q0 -56 -41.5 -100.5t-103.5 -44.5q-60 0 -103 43t-43 102q0 63 44.5 104.5t101.5 41.5zM-53 -420v223q198 0 270 47t72 170v844h-195v207h445v-1046q0 -227 -142.5 -336t-449.5 -109z" />
    <glyph glyph-name="afii10106" unicode="&#x459;" horiz-adv-x="1784" 
d="M1092 688q92 8 198 8q198 0 309 -92.5t111 -263.5q0 -157 -100.5 -248.5t-321.5 -91.5h-440v874h-264q-8 -224 -50.5 -417t-116.5 -297.5t-158.5 -138t-213.5 -33.5v221q100 0 166 68.5t112 269t46 457.5v67h723v-383zM1092 195q86 -5 172 -5q117 0 157.5 46.5
t40.5 115.5q0 65 -50 109.5t-146 44.5q-59 0 -174 -6v-305z" />
    <glyph glyph-name="afii10107" unicode="&#x45a;" horiz-adv-x="1720" 
d="M1028 688q93 8 199 8q198 0 309 -92.5t111 -263.5q0 -157 -101 -248.5t-321 -91.5h-441v459h-403v-459h-246v1071h246v-405h403v405h244v-383zM1028 195q87 -5 172 -5q117 0 158 46.5t41 115.5q0 65 -50 109.5t-147 44.5q-58 0 -174 -6v-305z" />
    <glyph glyph-name="afii10108" unicode="&#x45b;" horiz-adv-x="1227" 
d="M1090 0h-250v612q0 95 -61 157t-165 62q-65 0 -127.5 -34t-89.5 -76v-721h-250v1184h-151v159h151v130l250 59v-189h391v-159h-391v-236q102 88 271 88q201 0 311.5 -112.5t110.5 -319.5v-604z" />
    <glyph glyph-name="afii10109" unicode="&#x45c;" horiz-adv-x="1118" 
d="M1044 -6q-53 -6 -116 -6q-188 0 -217 192q-41 281 -322 281h-6v-461h-248v1071h248v-403h12q272 0 307 231q28 184 211 184q28 0 113 -6v-203q-26 5 -47 5q-40 0 -55 -62q-48 -204 -273 -252q242 -65 291 -311q12 -59 53 -59q37 0 49 4v-205zM879 1573l-224 -330h-198
l168 330h254z" />
    <glyph glyph-name="afii10110" unicode="&#x45e;" horiz-adv-x="1108" 
d="M621 -172q-40 -107 -169 -177.5t-309 -70.5v221q289 0 289 146q0 95 -80 293l-336 831h260l291 -739l264 739h259zM944 1589q-28 -149 -129 -228t-244 -79q-146 0 -243 78t-127 229l209 43q23 -180 168 -180q148 0 163 178z" />
    <glyph glyph-name="afii10193" unicode="&#x45f;" horiz-adv-x="1208" 
d="M1061 0h-352v-373h-222v373h-352v1071h250v-862h426v862h250v-1071z" />
    <glyph glyph-name="afii10050" unicode="&#x490;" horiz-adv-x="1126" 
d="M1061 1237h-649v-1237h-262v1464h692v322h219v-549z" />
    <glyph glyph-name="afii10098" unicode="&#x491;" horiz-adv-x="940" 
d="M879 862h-492v-862h-252v1071h545v270h199v-479z" />
    <glyph glyph-name="Amacron" unicode="&#x100;" horiz-adv-x="1297" 
d="M1005 0l-107 297h-502l-102 -297h-289l584 1485h114l589 -1485h-287zM646 1037l-176 -541h352zM1001 1766v-181h-738v181h738z" />
    <glyph glyph-name="amacron" unicode="&#x101;" horiz-adv-x="1091" 
d="M731 107q-34 -56 -118.5 -91.5t-176.5 -35.5q-173 0 -272 86.5t-99 245.5q0 186 139.5 291t396.5 105q44 0 104 -15q0 189 -239 189q-141 0 -236 -47l-54 194q129 62 307 62q245 0 359 -111.5t114 -422.5v-229q0 -214 86 -269q-31 -54 -69 -66.5t-87 -12.5q-54 0 -97 40
t-58 87zM707 504q-64 13 -96 13q-296 0 -296 -194q0 -144 167 -144q225 0 225 225v100zM871 1396v-181h-738v181h738z" />
    <glyph glyph-name="Ccircumflex" unicode="&#x108;" horiz-adv-x="1253" 
d="M1154 1387l-107 -215q-87 87 -280 87q-183 0 -300 -153.5t-117 -388.5t108.5 -373t289.5 -138q207 0 324 148l121 -210q-159 -169 -466 -169t-477 202t-170 551q0 325 188.5 543.5t482.5 218.5q252 0 403 -103zM884 1585l-157 149l-139 -149h-267l355 315h107l368 -315
h-267z" />
    <glyph glyph-name="ccircumflex" unicode="&#x109;" horiz-adv-x="1048" 
d="M975 986l-107 -187q-88 83 -236 83q-142 0 -224.5 -94.5t-82.5 -261.5q0 -337 321 -337q139 0 245 92l92 -197q-109 -68 -190.5 -86t-192.5 -18q-248 0 -391.5 144.5t-143.5 401.5q0 253 157 409t428 156q187 0 325 -105zM744 1215l-157 149l-139 -149h-267l355 315h107
l368 -315h-267z" />
    <glyph glyph-name="Cdot" unicode="&#x10a;" horiz-adv-x="1253" 
d="M1154 1387l-107 -215q-87 87 -280 87q-183 0 -300 -153.5t-117 -388.5t108.5 -373t289.5 -138q207 0 324 148l121 -210q-159 -169 -466 -169t-477 202t-170 551q0 325 188.5 543.5t482.5 218.5q252 0 403 -103zM740 1887q62 0 106.5 -44.5t44.5 -106.5t-44.5 -106.5
t-106.5 -44.5q-63 0 -107.5 44.5t-44.5 106.5t44.5 106.5t107.5 44.5z" />
    <glyph glyph-name="cdot" unicode="&#x10b;" horiz-adv-x="1048" 
d="M975 986l-107 -187q-88 83 -236 83q-142 0 -224.5 -94.5t-82.5 -261.5q0 -337 321 -337q139 0 245 92l92 -197q-109 -68 -190.5 -86t-192.5 -18q-248 0 -391.5 144.5t-143.5 401.5q0 253 157 409t428 156q187 0 325 -105zM600 1517q62 0 106.5 -44.5t44.5 -106.5
t-44.5 -106.5t-106.5 -44.5q-63 0 -107.5 44.5t-44.5 106.5t44.5 106.5t107.5 44.5z" />
    <glyph glyph-name="Emacron" unicode="&#x112;" horiz-adv-x="1165" 
d="M410 1234v-343h484v-221h-484v-439h664v-231h-924v1465h935v-231h-675zM1011 1766v-181h-738v181h738z" />
    <glyph glyph-name="emacron" unicode="&#x113;" horiz-adv-x="1177" 
d="M1091 459h-765q7 -128 88 -199t218 -71q171 0 260 89l97 -191q-132 -107 -394 -107q-245 0 -387.5 143.5t-142.5 400.5q0 253 156.5 410t375.5 157q233 0 374 -139t141 -354q0 -46 -21 -139zM335 647h526q-26 235 -260 235q-214 0 -266 -235zM971 1396v-181h-738v181h738
z" />
    <glyph glyph-name="Ebreve" unicode="&#x114;" horiz-adv-x="1165" 
d="M410 1234v-343h484v-221h-484v-439h664v-231h-924v1465h935v-231h-675zM978 1910q0 -139 -96 -232t-248 -93q-146 0 -232.5 89t-86.5 236h141q0 -64 52.5 -102.5t125.5 -38.5q90 0 145.5 37.5t55.5 103.5h143z" />
    <glyph glyph-name="ebreve" unicode="&#x115;" horiz-adv-x="1177" 
d="M1091 459h-765q7 -128 88 -199t218 -71q171 0 260 89l97 -191q-132 -107 -394 -107q-245 0 -387.5 143.5t-142.5 400.5q0 253 156.5 410t375.5 157q233 0 374 -139t141 -354q0 -46 -21 -139zM335 647h526q-26 235 -260 235q-214 0 -266 -235zM928 1540q0 -139 -96 -232
t-248 -93q-146 0 -232.5 89t-86.5 236h141q0 -64 52.5 -102.5t125.5 -38.5q90 0 145.5 37.5t55.5 103.5h143z" />
    <glyph glyph-name="Edot" unicode="&#x116;" horiz-adv-x="1165" 
d="M410 1234v-343h484v-221h-484v-439h664v-231h-924v1465h935v-231h-675zM630 1887q62 0 106.5 -44.5t44.5 -106.5t-44.5 -106.5t-106.5 -44.5q-63 0 -107.5 44.5t-44.5 106.5t44.5 106.5t107.5 44.5z" />
    <glyph glyph-name="edot" unicode="&#x117;" horiz-adv-x="1177" 
d="M1091 459h-765q7 -128 88 -199t218 -71q171 0 260 89l97 -191q-132 -107 -394 -107q-245 0 -387.5 143.5t-142.5 400.5q0 253 156.5 410t375.5 157q233 0 374 -139t141 -354q0 -46 -21 -139zM335 647h526q-26 235 -260 235q-214 0 -266 -235zM580 1517q62 0 106.5 -44.5
t44.5 -106.5t-44.5 -106.5t-106.5 -44.5q-63 0 -107.5 44.5t-44.5 106.5t44.5 106.5t107.5 44.5z" />
    <glyph glyph-name="Gcircumflex" unicode="&#x11c;" horiz-adv-x="1375" 
d="M1232 1346l-109 -209q-46 41 -142 81.5t-165 40.5q-216 0 -341 -146.5t-125 -392.5q0 -234 122.5 -374t333.5 -140q139 0 229 76v288h-203v222h463v-656q-93 -76 -239.5 -118.5t-291.5 -42.5q-315 0 -499.5 206.5t-184.5 545.5t201 551t541 212q241 0 410 -144zM901 1585
l-157 149l-139 -149h-267l355 315h107l368 -315h-267z" />
    <glyph glyph-name="gcircumflex" unicode="&#x11d;" horiz-adv-x="1028" 
d="M55 -275l158 195q131 -120 292 -120q108 0 178 32t70 88q0 95 -155 95q-42 0 -125 -10t-125 -10q-258 0 -258 185q0 53 43 104t100 75q-183 119 -183 337q0 172 126 284.5t310 112.5q144 0 241 -54l98 114l173 -157l-119 -87q62 -94 62 -222q0 -183 -111.5 -292.5
t-281.5 -109.5q-27 0 -72 5l-41 6q-7 0 -53.5 -21.5t-46.5 -44.5q0 -40 69 -40q31 0 104 15t125 15q365 0 365 -293q0 -162 -146 -254.5t-352 -92.5q-246 0 -445 145zM305 695q0 -95 52.5 -152.5t141.5 -57.5t137 56t48 154q0 81 -51.5 137t-133.5 56q-86 0 -140 -54
t-54 -139zM604 1215l-157 149l-139 -149h-267l355 315h107l368 -315h-267z" />
    <glyph glyph-name="Gdot" unicode="&#x120;" horiz-adv-x="1375" 
d="M1232 1346l-109 -209q-46 41 -142 81.5t-165 40.5q-216 0 -341 -146.5t-125 -392.5q0 -234 122.5 -374t333.5 -140q139 0 229 76v288h-203v222h463v-656q-93 -76 -239.5 -118.5t-291.5 -42.5q-315 0 -499.5 206.5t-184.5 545.5t201 551t541 212q241 0 410 -144zM740 1887
q62 0 106.5 -44.5t44.5 -106.5t-44.5 -106.5t-106.5 -44.5q-63 0 -107.5 44.5t-44.5 106.5t44.5 106.5t107.5 44.5z" />
    <glyph glyph-name="gdot" unicode="&#x121;" horiz-adv-x="1028" 
d="M55 -275l158 195q131 -120 292 -120q108 0 178 32t70 88q0 95 -155 95q-42 0 -125 -10t-125 -10q-258 0 -258 185q0 53 43 104t100 75q-183 119 -183 337q0 172 126 284.5t310 112.5q144 0 241 -54l98 114l173 -157l-119 -87q62 -94 62 -222q0 -183 -111.5 -292.5
t-281.5 -109.5q-27 0 -72 5l-41 6q-7 0 -53.5 -21.5t-46.5 -44.5q0 -40 69 -40q31 0 104 15t125 15q365 0 365 -293q0 -162 -146 -254.5t-352 -92.5q-246 0 -445 145zM305 695q0 -95 52.5 -152.5t141.5 -57.5t137 56t48 154q0 81 -51.5 137t-133.5 56q-86 0 -140 -54
t-54 -139zM460 1517q62 0 106.5 -44.5t44.5 -106.5t-44.5 -106.5t-106.5 -44.5q-63 0 -107.5 44.5t-44.5 106.5t44.5 106.5t107.5 44.5z" />
    <glyph glyph-name="Gcedilla" unicode="&#x122;" horiz-adv-x="1375" 
d="M1232 1346l-109 -209q-46 41 -142 81.5t-165 40.5q-216 0 -341 -146.5t-125 -392.5q0 -234 122.5 -374t333.5 -140q139 0 229 76v288h-203v222h463v-656q-93 -76 -239.5 -118.5t-291.5 -42.5q-315 0 -499.5 206.5t-184.5 545.5t201 551t541 212q241 0 410 -144zM552 -425
l-41 127q34 -9 70 -9q131 0 131 91q0 33 -20.5 64t-51.5 39l85 89q180 -37 180 -207q0 -96 -71 -150.5t-184 -54.5q-51 0 -98 11z" />
    <glyph glyph-name="gcedilla" unicode="&#x123;" horiz-adv-x="1028" 
d="M55 -275l158 195q131 -120 292 -120q108 0 178 32t70 88q0 95 -155 95q-42 0 -125 -10t-125 -10q-258 0 -258 185q0 53 43 104t100 75q-183 119 -183 337q0 172 126 284.5t310 112.5q144 0 241 -54l98 114l173 -157l-119 -87q62 -94 62 -222q0 -183 -111.5 -292.5
t-281.5 -109.5q-27 0 -72 5l-41 6q-7 0 -53.5 -21.5t-46.5 -44.5q0 -40 69 -40q31 0 104 15t125 15q365 0 365 -293q0 -162 -146 -254.5t-352 -92.5q-246 0 -445 145zM305 695q0 -95 52.5 -152.5t141.5 -57.5t137 56t48 154q0 81 -51.5 137t-133.5 56q-86 0 -140 -54
t-54 -139zM545 1718l82 -97q-68 -68 -78.5 -88.5t-10.5 -33.5q0 -27 42 -66.5t42 -89.5q0 -58 -39 -93t-97 -35q-128 0 -128 175q0 183 187 328z" />
    <glyph glyph-name="Hcircumflex" unicode="&#x124;" horiz-adv-x="1400" 
d="M993 0v660h-583v-660h-260v1465h260v-574h583v574h257v-1465h-257zM857 1585l-157 149l-139 -149h-267l355 315h107l368 -315h-267z" />
    <glyph glyph-name="hcircumflex" unicode="&#x125;" horiz-adv-x="1214" 
d="M828 0v660q0 99 -62 159t-162 60q-62 0 -125 -33.5t-90 -76.5v-769h-254v1470l254 60v-527q97 88 267 88q201 0 312 -111.5t111 -319.5v-660h-251zM774 1585l-157 149l-139 -149h-267l355 315h107l368 -315h-267z" />
    <glyph glyph-name="Hbar" unicode="&#x126;" horiz-adv-x="1436" 
d="M1411 1103h-139v-1103h-256v659h-592v-659h-260v1103h-139v155h139v207h260v-207h592v207h256v-207h139v-155zM1016 891v212h-592v-212h592z" />
    <glyph glyph-name="hbar" unicode="&#x127;" horiz-adv-x="1227" 
d="M1090 0h-250v612q0 99 -63 159t-163 60q-65 0 -125 -32q-64 -34 -92 -78v-721h-250v1184h-151v159h151v130l250 59v-189h391v-159h-391v-236q101 88 271 88q201 0 311.5 -112.5t110.5 -319.5v-604z" />
    <glyph glyph-name="Itilde" unicode="&#x128;" horiz-adv-x="570" 
d="M155 0v1465h260v-1465h-260zM75 1555h-145q19 114 76.5 185.5t142.5 71.5q78 0 156 -38.5t100 -38.5q61 0 87 77h148q-38 -149 -93 -203t-138 -54q-62 0 -141.5 38.5t-103.5 38.5q-52 0 -89 -77z" />
    <glyph glyph-name="itilde" unicode="&#x129;" horiz-adv-x="611" 
d="M202 0v866h-137v205h390v-1071h-253zM98 1185h-145q19 114 76.5 185.5t142.5 71.5q78 0 156 -38.5t100 -38.5q61 0 87 77h148q-38 -149 -93 -203t-138 -54q-62 0 -141.5 38.5t-103.5 38.5q-52 0 -89 -77z" />
    <glyph glyph-name="Imacron" unicode="&#x12a;" horiz-adv-x="570" 
d="M155 0v1465h260v-1465h-260zM654 1766v-181h-738v181h738z" />
    <glyph glyph-name="imacron" unicode="&#x12b;" horiz-adv-x="611" 
d="M202 0v866h-137v205h390v-1071h-253zM681 1396v-181h-738v181h738z" />
    <glyph glyph-name="Ibreve" unicode="&#x12c;" horiz-adv-x="570" 
d="M155 0v1465h260v-1465h-260zM616 1910q0 -139 -96 -232t-248 -93q-146 0 -232.5 89t-86.5 236h141q0 -64 52.5 -102.5t125.5 -38.5q90 0 145.5 37.5t55.5 103.5h143z" />
    <glyph glyph-name="ibreve" unicode="&#x12d;" horiz-adv-x="611" 
d="M202 0v866h-137v205h390v-1071h-253zM638 1540q0 -139 -96 -232t-248 -93q-146 0 -232.5 89t-86.5 236h141q0 -64 52.5 -102.5t125.5 -38.5q90 0 145.5 37.5t55.5 103.5h143z" />
    <glyph glyph-name="Iogonek" unicode="&#x12e;" horiz-adv-x="570" 
d="M585 -336q-78 -58 -202 -58q-110 0 -182 51q-82 58 -82 163q0 103 44 180h-8v1465h260v-1465h-12q-45 -14 -73.5 -57t-28.5 -91q0 -46 41 -76q37 -27 84 -27q52 0 94 39z" />
    <glyph glyph-name="iogonek" unicode="&#x12f;" horiz-adv-x="611" 
d="M474 1341q0 -61 -42 -103t-101 -42q-62 0 -104 44t-42 101q0 60 43 103t103 43q59 0 101 -42t42 -104zM632 -336q-78 -58 -202 -58q-110 0 -182 51q-82 58 -82 163q0 103 44 180h-8v866h-137v205h389v-1071h-4q-45 -14 -73.5 -57t-28.5 -91q0 -46 41 -76q37 -27 84 -27
q52 0 94 39z" />
    <glyph glyph-name="IJ" unicode="&#x132;" horiz-adv-x="1621" 
d="M155 0v1465h260v-1465h-260zM547 339h232q33 -128 214 -128q128 0 180.5 83t52.5 252v919h260v-911q0 -292 -124 -433t-398 -141q-182 0 -294 95t-123 264z" />
    <glyph glyph-name="ij" unicode="&#x133;" horiz-adv-x="1274" 
d="M331 1486q60 0 102.5 -42.5t42.5 -102.5t-42.5 -102.5t-102.5 -42.5t-102.5 42.5t-42.5 102.5t42.5 102.5t102.5 42.5zM202 0v866h-137v205h390v-1071h-253zM969 1486q60 0 102.5 -42.5t42.5 -102.5t-42.5 -102.5t-102.5 -42.5t-102.5 42.5t-42.5 102.5t42.5 102.5
t102.5 42.5zM511 -420v223q200 0 270.5 47.5t70.5 170.5v844h-193v206h443v-1046q0 -230 -144.5 -337.5t-446.5 -107.5z" />
    <glyph glyph-name="Jcircumflex" unicode="&#x134;" horiz-adv-x="1091" 
d="M17 339h232q33 -128 214 -128q128 0 180.5 83t52.5 252v919h260v-911q0 -292 -124 -433t-398 -141q-182 0 -294 95t-123 264zM853 1585l-157 149l-139 -149h-267l355 315h107l368 -315h-267z" />
    <glyph glyph-name="jcircumflex" unicode="&#x135;" horiz-adv-x="751" 
d="M-12 -420v223q200 0 270.5 47.5t70.5 170.5v844h-193v206h443v-1046q0 -230 -144.5 -337.5t-446.5 -107.5zM524 1215l-157 149l-139 -149h-267l355 315h107l368 -315h-267z" />
    <glyph glyph-name="Kcedilla" unicode="&#x136;" horiz-adv-x="1264" 
d="M981 0l-408 624l-163 -223v-401h-260v1465h260v-701l498 701h296l-459 -640l547 -825h-311zM451 -425l-41 127q34 -9 70 -9q131 0 131 91q0 33 -20.5 64t-51.5 39l85 89q180 -37 180 -207q0 -96 -71 -150.5t-184 -54.5q-51 0 -98 11z" />
    <glyph glyph-name="kcedilla" unicode="&#x137;" horiz-adv-x="1122" 
d="M820 0l-315 485l-120 -127v-358h-250v1470l250 60v-870l357 411h301l-362 -406l436 -665h-297zM391 -425l-41 127q34 -9 70 -9q131 0 131 91q0 33 -20.5 64t-51.5 39l85 89q180 -37 180 -207q0 -96 -71 -150.5t-184 -54.5q-51 0 -98 11z" />
    <glyph glyph-name="kgreenlandic" unicode="&#x138;" horiz-adv-x="1176" 
d="M844 0l-301 453l-150 -164v-289h-250v1071h250v-481l406 481h301l-398 -442l455 -629h-313z" />
    <glyph glyph-name="Lcedilla" unicode="&#x13b;" horiz-adv-x="1132" 
d="M150 0v1465h260v-1234h662v-231h-922zM451 -425l-41 127q34 -9 70 -9q131 0 131 91q0 33 -20.5 64t-51.5 39l85 89q180 -37 180 -207q0 -96 -71 -150.5t-184 -54.5q-51 0 -98 11z" />
    <glyph glyph-name="lcedilla" unicode="&#x13c;" horiz-adv-x="604" 
d="M178 1470l250 60v-1204q0 -198 118 -236q-58 -110 -198 -110q-170 0 -170 236v1254zM175 -425l-41 127q34 -9 70 -9q131 0 131 91q0 33 -20.5 64t-51.5 39l85 89q180 -37 180 -207q0 -96 -71 -150.5t-184 -54.5q-51 0 -98 11z" />
    <glyph glyph-name="Ncedilla" unicode="&#x145;" horiz-adv-x="1367" 
d="M1111 -20l-711 927v-908h-250v1466h125l692 -884v884h250v-1485h-106zM505 -425l-41 127q34 -9 70 -9q131 0 131 91q0 33 -20.5 64t-51.5 39l85 89q180 -37 180 -207q0 -96 -71 -150.5t-184 -54.5q-51 0 -98 11z" />
    <glyph glyph-name="ncedilla" unicode="&#x146;" horiz-adv-x="1209" 
d="M824 0v619q0 137 -52.5 200t-171.5 63q-55 0 -117.5 -31t-97.5 -77v-774h-250v1071h180l46 -100q102 120 301 120q191 0 301.5 -114.5t110.5 -319.5v-657h-250zM425 -425l-41 127q34 -9 70 -9q131 0 131 91q0 33 -20.5 64t-51.5 39l85 89q180 -37 180 -207
q0 -96 -71 -150.5t-184 -54.5q-51 0 -98 11z" />
    <glyph glyph-name="napostrophe" unicode="&#x149;" horiz-adv-x="1399" 
d="M63 1048l-63 85q66 50 81 73.5t15 49.5t-34.5 60.5t-34.5 75.5q0 118 117 118q123 0 123 -139q0 -196 -204 -323zM1014 0v619q0 137 -52.5 200t-171.5 63q-55 0 -117.5 -31t-97.5 -77v-774h-250v1071h180l46 -100q102 120 301 120q191 0 301.5 -114.5t110.5 -319.5v-657
h-250z" />
    <glyph glyph-name="Eng" unicode="&#x14a;" horiz-adv-x="1397" 
d="M1253 403q0 -204 -97.5 -319t-276.5 -115q-65 0 -133 27t-103 63l100 183q54 -47 117 -47q133 0 133 180v532q0 186 -69.5 269.5t-227.5 83.5q-76 0 -158.5 -42.5t-127.5 -103.5v-1114h-260v1465h174l51 -126q146 152 379 152q228 0 363.5 -140.5t135.5 -389.5v-558z" />
    <glyph glyph-name="eng" unicode="&#x14b;" horiz-adv-x="1209" 
d="M1075 74q0 -493 -471 -498v217q219 0 219 260v565q0 139 -52 202t-171 63q-56 0 -117 -31q-65 -33 -98 -78v-774h-250v1071h180l45 -100q102 121 302 121q196 0 306 -120q107 -117 107 -315v-583z" />
    <glyph glyph-name="Omacron" unicode="&#x14c;" horiz-adv-x="1440" 
d="M80 745q0 313 171.5 529.5t458.5 216.5q316 0 483 -196t167 -550t-174.5 -562t-495.5 -208q-295 0 -452.5 206t-157.5 564zM350 745q0 -257 87 -398t253 -141q195 0 297.5 138t102.5 401q0 515 -380 515q-174 0 -267 -139.5t-93 -375.5zM1079 1766v-181h-738v181h738z
" />
    <glyph glyph-name="omacron" unicode="&#x14d;" horiz-adv-x="1159" 
d="M65 538q0 245 141.5 399t373.5 154q244 0 379 -148t135 -405q0 -256 -137.5 -407t-376.5 -151q-244 0 -379.5 152.5t-135.5 405.5zM325 538q0 -354 255 -354q117 0 185.5 92t68.5 262q0 349 -254 349q-117 0 -186 -92t-69 -257zM949 1396v-181h-738v181h738z" />
    <glyph glyph-name="Obreve" unicode="&#x14e;" horiz-adv-x="1440" 
d="M80 745q0 313 171.5 529.5t458.5 216.5q316 0 483 -196t167 -550t-174.5 -562t-495.5 -208q-295 0 -452.5 206t-157.5 564zM350 745q0 -257 87 -398t253 -141q195 0 297.5 138t102.5 401q0 515 -380 515q-174 0 -267 -139.5t-93 -375.5zM1054 1910q0 -139 -96 -232
t-248 -93q-146 0 -232.5 89t-86.5 236h141q0 -64 52.5 -102.5t125.5 -38.5q90 0 145.5 37.5t55.5 103.5h143z" />
    <glyph glyph-name="obreve" unicode="&#x14f;" horiz-adv-x="1159" 
d="M65 538q0 245 141.5 399t373.5 154q244 0 379 -148t135 -405q0 -256 -137.5 -407t-376.5 -151q-244 0 -379.5 152.5t-135.5 405.5zM325 538q0 -354 255 -354q117 0 185.5 92t68.5 262q0 349 -254 349q-117 0 -186 -92t-69 -257zM924 1540q0 -139 -96 -232t-248 -93
q-146 0 -232.5 89t-86.5 236h141q0 -64 52.5 -102.5t125.5 -38.5q90 0 145.5 37.5t55.5 103.5h143z" />
    <glyph glyph-name="Rcedilla" unicode="&#x156;" horiz-adv-x="1251" 
d="M976 0l-391 605q-59 1 -165 7v-612h-270v1465q22 0 169 7.5t237 7.5q558 0 558 -432q0 -130 -77 -237t-194 -151l433 -660h-300zM420 1239v-407q72 -6 110 -6q163 0 238.5 46t75.5 179q0 108 -81 151t-255 43q-42 0 -88 -6zM451 -425l-41 127q34 -9 70 -9q131 0 131 91
q0 33 -20.5 64t-51.5 39l85 89q180 -37 180 -207q0 -96 -71 -150.5t-184 -54.5q-51 0 -98 11z" />
    <glyph glyph-name="rcedilla" unicode="&#x157;" horiz-adv-x="875" 
d="M754 838q-67 44 -147 44q-87 0 -154.5 -79t-67.5 -193v-610h-250v1071h250v-98q105 118 279 118q128 0 196 -39zM115 -425l-41 127q34 -9 70 -9q131 0 131 91q0 33 -20.5 64t-51.5 39l85 89q180 -37 180 -207q0 -96 -71 -150.5t-184 -54.5q-51 0 -98 11z" />
    <glyph glyph-name="Scircumflex" unicode="&#x15c;" horiz-adv-x="1047" 
d="M80 81l96 233q154 -108 303 -108q229 0 229 160q0 75 -54 143t-222.5 152.5t-227 139t-90 129.5t-31.5 166q0 170 124.5 282t319.5 112q254 0 373 -95l-79 -224q-137 98 -289 98q-90 0 -139.5 -47.5t-49.5 -123.5q0 -126 279 -262q147 -72 212 -132.5t99 -141t34 -179.5
q0 -178 -140.5 -293t-376.5 -115q-205 0 -370 106zM684 1585l-157 149l-139 -149h-267l355 315h107l368 -315h-267z" />
    <glyph glyph-name="scircumflex" unicode="&#x15d;" horiz-adv-x="882" 
d="M69 69l89 199q112 -89 253 -89q146 0 146 104q0 61 -44 100t-171 92q-277 115 -277 322q0 139 106 216.5t271 77.5q167 0 314 -75l-72 -194q-82 70 -228 70q-131 0 -131 -104q0 -41 43 -74t184 -88.5t203 -134.5t62 -191q0 -149 -110.5 -234.5t-300.5 -85.5
q-107 0 -171.5 17.5t-165.5 71.5zM584 1215l-157 149l-139 -149h-267l355 315h107l368 -315h-267z" />
    <glyph glyph-name="Tbar" unicode="&#x166;" horiz-adv-x="1253" 
d="M1233 1236h-488v-456h318v-164h-318v-616h-260v616h-317v164h317v456h-465v229h1213v-229z" />
    <glyph glyph-name="tbar" unicode="&#x167;" horiz-adv-x="812" 
d="M754 10q-87 -30 -248 -30q-334 0 -334 348v170h-123v155h123v217h-123v201h123v217l252 92v-309h293v-201h-293v-217h242v-155h-242v-97q0 -118 35 -163q37 -48 127 -48q87 0 168 50v-230z" />
    <glyph glyph-name="Utilde" unicode="&#x168;" horiz-adv-x="1388" 
d="M150 1465h260v-993q0 -118 72 -192t198 -74q141 0 219.5 72.5t78.5 198.5v988h260v-1008q0 -226 -151.5 -354t-404.5 -128q-255 0 -393.5 125t-138.5 358v1007zM484 1555h-145q19 114 76.5 185.5t142.5 71.5q78 0 156 -38.5t100 -38.5q61 0 87 77h148q-38 -149 -93 -203
t-138 -54q-62 0 -141.5 38.5t-103.5 38.5q-52 0 -89 -77z" />
    <glyph glyph-name="utilde" unicode="&#x169;" horiz-adv-x="1210" 
d="M825 -1v90q-53 -45 -146 -77t-171 -32q-373 0 -373 396v695h250v-676q0 -206 185 -206q85 0 158 44t97 102v736h250v-1072h-250zM396 1185h-145q19 114 76.5 185.5t142.5 71.5q78 0 156 -38.5t100 -38.5q61 0 87 77h148q-38 -149 -93 -203t-138 -54q-62 0 -141.5 38.5
t-103.5 38.5q-52 0 -89 -77z" />
    <glyph glyph-name="Umacron" unicode="&#x16a;" horiz-adv-x="1388" 
d="M150 1465h260v-993q0 -118 72 -192t198 -74q141 0 219.5 72.5t78.5 198.5v988h260v-1008q0 -226 -151.5 -354t-404.5 -128q-255 0 -393.5 125t-138.5 358v1007zM1063 1766v-181h-738v181h738z" />
    <glyph glyph-name="umacron" unicode="&#x16b;" horiz-adv-x="1210" 
d="M825 -1v90q-53 -45 -146 -77t-171 -32q-373 0 -373 396v695h250v-676q0 -206 185 -206q85 0 158 44t97 102v736h250v-1072h-250zM974 1396v-181h-738v181h738z" />
    <glyph glyph-name="Ubreve" unicode="&#x16c;" horiz-adv-x="1388" 
d="M150 1465h260v-993q0 -118 72 -192t198 -74q141 0 219.5 72.5t78.5 198.5v988h260v-1008q0 -226 -151.5 -354t-404.5 -128q-255 0 -393.5 125t-138.5 358v1007zM1025 1910q0 -139 -96 -232t-248 -93q-146 0 -232.5 89t-86.5 236h141q0 -64 52.5 -102.5t125.5 -38.5
q90 0 145.5 37.5t55.5 103.5h143z" />
    <glyph glyph-name="ubreve" unicode="&#x16d;" horiz-adv-x="1210" 
d="M825 -1v90q-53 -45 -146 -77t-171 -32q-373 0 -373 396v695h250v-676q0 -206 185 -206q85 0 158 44t97 102v736h250v-1072h-250zM936 1540q0 -139 -96 -232t-248 -93q-146 0 -232.5 89t-86.5 236h141q0 -64 52.5 -102.5t125.5 -38.5q90 0 145.5 37.5t55.5 103.5h143z" />
    <glyph glyph-name="Uogonek" unicode="&#x172;" horiz-adv-x="1388" 
d="M1237 457q0 -229 -150 -355q-113 -95 -283 -119q-68 -47 -68 -131q0 -46 41 -76q37 -27 84 -27q52 0 94 39l65 -124q-78 -58 -202 -58q-110 0 -182 51q-82 58 -82 163q0 90 34 160q-210 21 -324 144.5t-114 334.5v1005h260v-993q0 -122 73.5 -193t196.5 -71
q142 0 220.5 73.5t78.5 196.5v987h258v-1007z" />
    <glyph glyph-name="uogonek" unicode="&#x173;" horiz-adv-x="1210" 
d="M1242 -336q-78 -58 -202 -58q-110 0 -182 51q-82 58 -82 163q0 109 49 180v89q-54 -46 -146 -77.5t-171 -31.5q-373 0 -373 397v694h250v-676q0 -207 184 -207q76 0 149 40q79 42 107 108v735h250v-1071h-15q-45 -14 -73.5 -57t-28.5 -91q0 -46 40 -76q37 -27 85 -27
q52 0 94 39z" />
    <glyph glyph-name="Wcircumflex" unicode="&#x174;" horiz-adv-x="1810" 
d="M1331 -20h-107l-320 924l-311 -924h-107l-481 1485h271l275 -884l297 884h114l298 -884l274 884h271zM1062 1585l-157 149l-139 -149h-267l355 315h107l368 -315h-267z" />
    <glyph glyph-name="wcircumflex" unicode="&#x175;" horiz-adv-x="1605" 
d="M1187 -20h-91l-294 658l-293 -658h-92l-404 1091h263l215 -639l262 639h90l271 -643l232 643h246zM955 1215l-157 149l-139 -149h-267l355 315h107l368 -315h-267z" />
    <glyph glyph-name="Ycircumflex" unicode="&#x176;" horiz-adv-x="1256" 
d="M759 601v-601h-260v601l-494 864h276l347 -625l348 625h275zM776 1585l-157 149l-139 -149h-267l355 315h107l368 -315h-267z" />
    <glyph glyph-name="ycircumflex" unicode="&#x177;" horiz-adv-x="1093" 
d="M609 -172q-40 -107 -171.5 -177.5t-306.5 -70.5v221q289 0 289 145q0 96 -80 294l-335 831h259l292 -740l263 740h259zM689 1215l-157 149l-139 -149h-267l355 315h107l368 -315h-267z" />
    <glyph glyph-name="longs" unicode="&#x17f;" horiz-adv-x="739" 
d="M768 1471l-68 -190q-73 29 -133 29q-80 0 -122 -54.5t-42 -160.5v-1095h-249v1068q0 201 101 319q105 123 296 123q106 0 217 -39z" />
    <glyph glyph-name="Aringacute" unicode="&#x1fa;" horiz-adv-x="1297" 
d="M1292 0h-287l-107 297h-502l-102 -297h-289l545 1290q-154 51 -154 186q0 131 145 183l125 219h247l-175 -213q162 -44 162 -189q0 -135 -158 -186zM753 1475q0 86 -106 86q-40 0 -71 -21q-35 -25 -35 -65q0 -86 106 -86t106 86zM822 496l-176 488l-176 -488h352z" />
    <glyph glyph-name="aringacute" unicode="&#x1fb;" horiz-adv-x="1091" 
d="M731 107q-34 -56 -118.5 -91.5t-176.5 -35.5q-173 0 -272 86.5t-99 245.5q0 186 139.5 291t396.5 105q44 0 104 -15q0 189 -239 189q-141 0 -236 -47l-54 194q129 62 307 62q245 0 359 -111.5t114 -422.5v-229q0 -214 86 -269q-31 -54 -69 -66.5t-87 -12.5q-54 0 -97 40
t-58 87zM707 504q-64 13 -96 13q-296 0 -296 -194q0 -144 167 -144q225 0 225 225v100zM505 1166q-105 0 -178.5 58t-73.5 153q0 91 76 151t176 60q103 0 177.5 -59t74.5 -152t-74.5 -152t-177.5 -59zM504 1472q-44 0 -75 -25.5t-31 -70.5q0 -96 106 -96t106 96t-106 96z
M787 1931l-226 -293h-190l169 293h247z" />
    <glyph glyph-name="AEacute" unicode="&#x1fc;" horiz-adv-x="1915" 
d="M1180 1234v-343h484v-221h-484v-439h664v-231h-924v297h-446l-183 -297h-289l888 1465h965v-231h-675zM920 496v581l-352 -581h352zM1497 1878l-226 -293h-190l169 293h247z" />
    <glyph glyph-name="aeacute" unicode="&#x1fd;" horiz-adv-x="1767" 
d="M692 504q-50 13 -96 13q-296 0 -296 -194q0 -144 167 -144q225 0 225 225v100zM1711 459h-775q7 -130 97 -203q85 -67 219 -67q170 0 260 89l97 -191q-131 -107 -394 -107q-190 0 -268 66l3 -46h-198q-13 34 -36 105q-39 -62 -132 -96q-78 -29 -163 -29q-167 0 -265 81
q-106 88 -106 251q0 209 171 312q140 84 365 84q51 0 104 -15q0 190 -239 190q-139 0 -236 -48l-54 194q129 62 307 62q284 0 389 -147q150 147 360 147q225 0 368 -133q147 -137 147 -360q0 -50 -21 -139zM1221 882q-108 0 -182 -65q-70 -62 -94 -170h536q-25 235 -260 235
zM1147 1508l-226 -293h-190l169 293h247z" />
    <glyph glyph-name="Oslashacute" unicode="&#x1fe;" horiz-adv-x="1400" 
d="M1173 1491h167l-155 -211q155 -194 155 -535q0 -354 -174.5 -562t-495.5 -208q-216 0 -360 113l-83 -113h-167l154 210q-154 205 -154 560q0 313 171.5 529.5t458.5 216.5q242 0 398 -116zM383 415l557 758q-92 87 -250 87q-174 0 -267 -139.5t-93 -375.5q0 -198 53 -330
zM1020 1055l-560 -763q82 -86 210 -86q195 0 297.5 138t102.5 401q0 191 -50 310zM977 1878l-226 -293h-190l169 293h247z" />
    <glyph glyph-name="oslashacute" unicode="&#x1ff;" horiz-adv-x="1159" 
d="M1094 1091l-123 -162q123 -146 123 -391q0 -256 -137.5 -407t-376.5 -151q-161 0 -277 69l-53 -69h-185l125 165q-125 150 -125 393q0 245 141.5 399t373.5 154q162 0 278 -67l51 67h185zM724 847q-57 40 -144 40q-117 0 -186 -92t-69 -257q0 -110 23 -185zM435 224
q57 -40 145 -40q117 0 185.5 92t68.5 262q0 106 -23 180zM817 1508l-226 -293h-190l169 293h247z" />
    <glyph glyph-name="Wgrave" unicode="&#x1e80;" horiz-adv-x="1810" 
d="M1331 -20h-107l-320 924l-311 -924h-107l-481 1485h271l275 -884l297 884h114l298 -884l274 884h271zM848 1585l-226 293h267l169 -293h-210z" />
    <glyph glyph-name="wgrave" unicode="&#x1e81;" horiz-adv-x="1605" 
d="M1187 -20h-91l-294 658l-293 -658h-92l-404 1091h263l215 -639l262 639h90l271 -643l232 643h246zM753 1215l-226 293h267l169 -293h-210z" />
    <glyph glyph-name="Wacute" unicode="&#x1e82;" horiz-adv-x="1810" 
d="M1331 -20h-107l-320 924l-311 -924h-107l-481 1485h271l275 -884l297 884h114l298 -884l274 884h271zM1188 1878l-226 -293h-190l169 293h247z" />
    <glyph glyph-name="wacute" unicode="&#x1e83;" horiz-adv-x="1605" 
d="M1187 -20h-91l-294 658l-293 -658h-92l-404 1091h263l215 -639l262 639h90l271 -643l232 643h246zM1069 1508l-226 -293h-190l169 293h247z" />
    <glyph glyph-name="Wdieresis" unicode="&#x1e84;" horiz-adv-x="1810" 
d="M1331 -20h-107l-320 924l-311 -924h-107l-481 1485h271l275 -884l297 884h114l298 -884l274 884h271zM595 1870q59 0 100.5 -42t41.5 -101t-41.5 -100.5t-100.5 -41.5t-101 41.5t-42 100.5t42 101t101 42zM1215 1870q59 0 100.5 -42t41.5 -101t-41.5 -100.5t-100.5 -41.5
t-101 41.5t-42 100.5t42 101t101 42z" />
    <glyph glyph-name="wdieresis" unicode="&#x1e85;" horiz-adv-x="1605" 
d="M1187 -20h-91l-294 658l-293 -658h-92l-404 1091h263l215 -639l262 639h90l271 -643l232 643h246zM488 1500q59 0 100.5 -42t41.5 -101t-41.5 -100.5t-100.5 -41.5t-101 41.5t-42 100.5t42 101t101 42zM1108 1500q59 0 100.5 -42t41.5 -101t-41.5 -100.5t-100.5 -41.5
t-101 41.5t-42 100.5t42 101t101 42z" />
    <glyph glyph-name="Ygrave" unicode="&#x1ef2;" horiz-adv-x="1256" 
d="M759 601v-601h-260v601l-494 864h276l347 -625l348 625h275zM585 1585l-226 293h267l169 -293h-210z" />
    <glyph glyph-name="ygrave" unicode="&#x1ef3;" horiz-adv-x="1093" 
d="M609 -172q-40 -107 -171.5 -177.5t-306.5 -70.5v221q289 0 289 145q0 96 -80 294l-335 831h259l292 -740l263 740h259zM472 1215l-226 293h267l169 -293h-210z" />
    <glyph glyph-name="afii00208" unicode="&#x2015;" horiz-adv-x="1504" 
d="M63 502v201h1369v-201h-1369z" />
    <glyph glyph-name="underscoredbl" unicode="&#x2017;" 
d="M-8 -254v129h1214v-129h-1214zM-8 -504v129h1214v-129h-1214z" />
    <glyph glyph-name="minute" unicode="&#x2032;" horiz-adv-x="406" 
d="M239 1056h-193l116 411h244z" />
    <glyph glyph-name="second" unicode="&#x2033;" horiz-adv-x="766" 
d="M239 1056h-193l116 411h244zM599 1056h-193l116 411h244z" />
    <glyph glyph-name="exclamdbl" unicode="&#x203c;" horiz-adv-x="1248" 
d="M426 382h-104q-78 500 -78 699v410h260v-409q0 -200 -78 -700zM382 308q68 0 115.5 -48t47.5 -116t-47.5 -116t-115.5 -48t-116 48t-48 116t48 116t116 48zM926 382h-104q-78 500 -78 699v410h260v-409q0 -200 -78 -700zM882 308q68 0 115.5 -48t47.5 -116t-47.5 -116
t-115.5 -48t-116 48t-48 116t48 116t116 48z" />
    <glyph glyph-name="radicalex" unicode="&#x203e;" horiz-adv-x="1074" 
d="M785 1471v-175h-791v175h791z" />
    <glyph glyph-name="nsuperior" unicode="&#x207f;" horiz-adv-x="831" 
d="M717 809h-168v395q0 150 -127 150q-74 0 -123 -70v-475h-168v670h119l24 -64q68 76 185 76q123 0 192 -76q66 -73 66 -198v-408z" />
    <glyph glyph-name="afii08941" unicode="&#x20a4;" horiz-adv-x="1073" 
d="M1061 211q-125 -211 -486 -211h-473v182q91 31 91 105v227h-91v143h91v150h-91v143h91v43q0 238 121 368t315 130q218 0 329 -145l-129 -177q-81 103 -223 103q-153 0 -153 -271v-51h307v-143h-307v-150h307v-143h-307v-283h192q138 0 227 121z" />
    <glyph glyph-name="peseta" unicode="&#x20a7;" horiz-adv-x="2380" 
d="M2314 299q0 -145 -107 -232t-284 -87q-144 0 -264 81q-96 -81 -225 -81q-312 0 -312 348v544h-131q-83 -340 -491 -340q-31 0 -105 7v-539h-256v1465q143 11 283 11q285 0 432 -109q141 -105 154 -298h114v220l248 92v-312h174v-197h-174v-485q0 -111 31 -154t108 -43
q88 0 170 97q115 -109 254 -109q131 0 131 109q0 69 -59 112q-32 23 -103 56q-90 42 -114 55q-186 103 -186 283q0 146 99.5 222.5t252.5 76.5q171 0 307 -74l-68 -191q-99 70 -221 70q-123 0 -123 -109q0 -41 41 -73t116 -65q108 -49 118 -54q190 -100 190 -297zM754 1016
q0 232 -295 232q-43 0 -64 -4v-478q53 -6 86 -6q138 0 207 63q66 60 66 193z" />
    <glyph glyph-name="afii61248" unicode="&#x2105;" horiz-adv-x="1610" 
d="M703 860q-110 -74 -260 -74q-162 0 -254 96.5t-92 262.5q0 171 103 273t269 102q133 0 228 -74l-82 -140q-71 61 -152 61q-93 0 -139 -66q-41 -58 -41 -154q0 -208 190 -208q81 0 158 68zM1335 1491l-884 -1526h-168l884 1526h168zM1513 313q0 -164 -87 -263
q-92 -105 -248 -105q-157 0 -249 105q-87 100 -87 263q0 162 94 265q91 100 242 100q156 0 245.5 -98.5t89.5 -266.5zM1327 313q0 212 -149 212q-150 0 -150 -212q0 -215 150 -215q67 0 109 56q40 53 40 159z" />
    <glyph glyph-name="afii61289" unicode="&#x2113;" 
d="M989 82q-38 -42 -125 -73q-81 -29 -144 -29q-221 0 -307 139q-69 109 -69 347l-86 -51l-81 186l167 100v111q0 362 75.5 520.5t266.5 158.5q133 0 212 -80t79 -211q0 -236 -383 -568v-187q0 -263 139 -263q92 0 152 63zM754 1188q0 101 -60 101q-49 0 -71 -39
q-29 -51 -29 -185v-144q160 159 160 267z" />
    <glyph glyph-name="afii61352" unicode="&#x2116;" horiz-adv-x="1978" 
d="M1882 664q0 -166 -80 -258q-82 -95 -227 -95q-141 0 -226 96t-85 257q0 156 85 252t226 96q144 0 227 -94q80 -91 80 -254zM1837 -6h-524v170h524v-170zM1130 -18h-104l-637 918v-900h-239v1484h104l637 -917v898h239v-1483zM1708 664q0 196 -137 196q-135 0 -135 -194
q0 -201 139 -201q133 0 133 199z" />
    <glyph glyph-name="estimated" unicode="&#x212e;" horiz-adv-x="1125" 
d="M1063 537h-814v-371q151 -123 309 -123q94 0 220 45t166 93l47 -53q-163 -148 -430 -148q-217 0 -358.5 149t-141.5 394q0 254 147.5 411t354.5 157q231 0 365.5 -166.5t134.5 -387.5zM250 886v-281h630v281q-120 142 -314 142q-185 0 -316 -142z" />
    <glyph glyph-name="oneeighth" unicode="&#x215b;" horiz-adv-x="1668" 
d="M1595 225q0 -136 -88 -211q-82 -69 -221 -69q-305 0 -305 280q0 70 41 137q34 56 117 105q-61 40 -93 93.5t-32 113.5q0 110 76.5 172.5t197.5 62.5q120 0 194 -56q83 -63 83 -179q0 -62 -38 -121.5t-100 -91.5q78 -38 121 -99q47 -67 47 -137zM1309 1491l-883 -1526
h-168l885 1526h166zM469 565h-188v652l-189 -113v184q203 103 297 219h80v-942zM1384 666q0 84 -96 84t-96 -84q0 -36 36.5 -75t74.5 -54q33 17 57 55.5t24 73.5zM1415 221q0 88 -143 170q-109 -62 -109 -158q0 -55 33.5 -89.5t89.5 -34.5q129 0 129 112z" />
    <glyph glyph-name="threeeighths" unicode="&#x215c;" horiz-adv-x="1668" 
d="M1604 225q0 -137 -88 -211q-83 -69 -222 -69q-305 0 -305 280q0 70 41 137q34 56 117 105q-61 40 -93 93.5t-32 113.5q0 110 76.5 172.5t197.5 62.5q120 0 194 -56q83 -63 83 -179q0 -62 -38.5 -122t-98.5 -91q76 -37 120 -99q48 -68 48 -137zM1335 1491l-882 -1526h-168
l882 1526h168zM614 838q0 -137 -87 -210t-238 -73q-140 0 -242 96l90 160q67 -76 154 -76q133 0 133 113q0 133 -143 133h-41v162h36q119 0 119 108q0 88 -110 88q-72 0 -129 -63l-86 143q80 101 225 101q126 0 207.5 -70.5t81.5 -179.5q0 -126 -99 -203q129 -74 129 -229z
M1393 666q0 84 -97 84q-96 0 -96 -84q0 -36 36.5 -75t74.5 -54q32 16 57 55t25 74zM1423 221q0 88 -143 170q-109 -62 -109 -158q0 -55 33.5 -89.5t89.5 -34.5q129 0 129 112z" />
    <glyph glyph-name="fiveeighths" unicode="&#x215d;" horiz-adv-x="1668" 
d="M1604 225q0 -137 -88 -211q-83 -69 -222 -69q-305 0 -305 280q0 70 41 137q34 56 117 105q-61 40 -93 93.5t-32 113.5q0 110 76.5 172.5t197.5 62.5q120 0 194 -56q83 -63 83 -179q0 -62 -38.5 -122t-98.5 -91q76 -37 120 -99q48 -68 48 -137zM1335 1491l-882 -1526h-168
l882 1526h168zM637 915q0 -166 -85 -261q-88 -99 -249 -99q-132 0 -244 92l84 166q89 -82 164 -82q131 0 131 168q0 152 -129 152q-72 0 -137 -68l-84 51v469h510v-168h-326v-139q34 10 80 10q137 0 211 -80t74 -211zM1393 666q0 84 -97 84q-96 0 -96 -84q0 -36 36.5 -75
t74.5 -54q32 16 57 55t25 74zM1423 221q0 88 -143 170q-109 -62 -109 -158q0 -55 33.5 -89.5t89.5 -34.5q129 0 129 112z" />
    <glyph glyph-name="seveneighths" unicode="&#x215e;" horiz-adv-x="1668" 
d="M1595 225q0 -136 -88 -211q-82 -69 -221 -69q-305 0 -305 280q0 70 41 137q34 56 117 105q-61 40 -93 93.5t-32 113.5q0 110 76.5 172.5t197.5 62.5q120 0 194 -56q83 -63 83 -179q0 -62 -38 -121.5t-100 -91.5q78 -38 121 -99q47 -67 47 -137zM1296 1491l-882 -1526
h-168l884 1526h166zM764 1415l-82 -155q-86 -163 -174 -363q-86 -195 -123 -330h-211q94 326 348 764h-397v172h639v-88zM1384 666q0 84 -96 84t-96 -84q0 -36 36.5 -75t74.5 -54q33 17 57 55.5t24 73.5zM1415 221q0 88 -143 170q-109 -62 -109 -158q0 -55 33.5 -89.5
t89.5 -34.5q129 0 129 112z" />
    <glyph glyph-name="H22073" unicode="&#x25a1;" horiz-adv-x="1237" 
d="M146 944h944v-944h-944v944zM222 868v-792h792v792h-792z" />
    <glyph glyph-name="H18543" unicode="&#x25aa;" horiz-adv-x="726" 
d="M594 908v-463h-463v463h463z" />
    <glyph glyph-name="H18551" unicode="&#x25ab;" horiz-adv-x="726" 
d="M594 908v-463h-463v463h463zM518 832h-311v-311h311v311z" />
    <glyph glyph-name="H18533" unicode="&#x25cf;" horiz-adv-x="1237" 
d="M177 576q0 183 129 312t312 129q182 0 311 -129t129 -312q0 -182 -129 -311t-311 -129q-183 0 -312 129t-129 311z" />
    <glyph glyph-name="openbullet" unicode="&#x25e6;" horiz-adv-x="726" 
d="M363 928q104 0 177.5 -73.5t73.5 -177.5t-73.5 -177.5t-177.5 -73.5t-177.5 73.5t-73.5 177.5t73 177.5t178 73.5zM363 852q-73 0 -124 -51.5t-51 -123.5q0 -73 51.5 -124t123.5 -51t123.5 51t51.5 124q0 72 -51 123.5t-124 51.5z" />
    <glyph glyph-name="quotereversed" unicode="&#x201b;" horiz-adv-x="752" 
d="M546 977l-83 -111q-284 176 -284 452q0 192 170 192q160 0 160 -162q0 -50 -49 -105t-49 -89q0 -53 46 -102q20 -22 89 -75z" />
    <glyph glyph-name="Scommaaccent" unicode="&#x218;" horiz-adv-x="1047" 
d="M80 81l96 233q154 -108 303 -108q229 0 229 160q0 75 -54 143t-222.5 152.5t-227 139t-90 129.5t-31.5 166q0 170 124.5 282t319.5 112q254 0 373 -95l-79 -224q-137 98 -289 98q-90 0 -139.5 -47.5t-49.5 -123.5q0 -126 279 -262q147 -72 212 -132.5t99 -141t34 -179.5
q0 -178 -140.5 -293t-376.5 -115q-205 0 -370 106zM416 -552l-63 85q66 50 81 73.5t15 49.5t-34.5 60.5t-34.5 75.5q0 118 117 118q123 0 123 -139q0 -196 -204 -323z" />
    <glyph glyph-name="scommaaccent" unicode="&#x219;" horiz-adv-x="882" 
d="M69 69l89 199q112 -89 253 -89q146 0 146 104q0 61 -44 100t-171 92q-277 115 -277 322q0 139 106 216.5t271 77.5q167 0 314 -75l-72 -194q-82 70 -228 70q-131 0 -131 -104q0 -41 43 -74t184 -88.5t203 -134.5t62 -191q0 -149 -110.5 -234.5t-300.5 -85.5
q-107 0 -171.5 17.5t-165.5 71.5zM356 -552l-63 85q66 50 81 73.5t15 49.5t-34.5 60.5t-34.5 75.5q0 118 117 118q123 0 123 -139q0 -196 -204 -323z" />
    <glyph glyph-name="Tcedilla" unicode="&#x162;" horiz-adv-x="1253" 
d="M746 1234v-1234h-260v1234h-466v231h1213v-231h-487zM459 -425l-41 127q34 -9 70 -9q131 0 131 91q0 33 -20.5 64t-51.5 39l85 89q180 -37 180 -207q0 -96 -71 -150.5t-184 -54.5q-51 0 -98 11z" />
    <glyph glyph-name="tcedilla" unicode="&#x163;" horiz-adv-x="812" 
d="M173 870h-124v201h124v218l250 92v-310h294v-201h-294v-469q0 -115 36 -162.5t126 -47.5t168 49v-230q-87 -30 -248 -30q-160 0 -246 90.5t-86 257.5v542zM241 -425l-41 127q34 -9 70 -9q131 0 131 91q0 33 -20.5 64t-51.5 39l85 89q180 -37 180 -207q0 -96 -71 -150.5
t-184 -54.5q-51 0 -98 11z" />
    <glyph glyph-name="dottediacute" horiz-adv-x="611" 
d="M331 1486q60 0 102.5 -42.5t42.5 -102.5t-42.5 -102.5t-102.5 -42.5t-102.5 42.5t-42.5 102.5t42.5 102.5t102.5 42.5zM202 0v866h-137v205h390v-1071h-253zM634 1864l-226 -293h-190l169 293h247z" />
    </font>
</defs>
</svg>
